  0
SECTION
  2
HEADER
  9
$ACADVER
  1
AC1009
999
I-DEAS 11 NX Not Encoded
  9
$EXTMIN
 10
0.0
 20
0.0
  9
$EXTMAX
 10
5.94E+002
 20
4.2E+002
  9
$TEXTSIZE
 40
1.25E-001
  9
$LTSCALE
 40
1.0
  9
$CLAYER
  8
2D_SICHTBARE_KANTEN
  9
$CECOLOR
 62
40
  9
$DIMASZ
 40
1.25E-001
  9
$DIMEXO
 40
6.25E-002
  9
$DIMDLI
 40
2.5E-001
  9
$DIMEXE
 40
1.25E-001
  9
$DIMTP
 40
5.0E-003
  9
$DIMTM
 40
-5.0E-003
  9
$DIMTXT
 40
3.0
  9
$DIMLIM
 70
0
  9
$DIMTIH
 70
1
  9
$DIMTOH
 70
1
  9
$DIMSE1
 70
0
  9
$DIMSE2
 70
0
  9
$DIMTAD
 70
0
  9
$DIMASO
 70
1
  9
$DIMALT
 70
0
  9
$DIMALTD
 70
0
  9
$DIMTOFL
 70
1
  9
$DIMTIX
 70
0
  9
$DIMSAH
 70
0
  9
$DIMTFAC
 40
1.0
  9
$DIMGAP
 40
6.25E-002
  9
$LUNITS
 70
2
  9
$LUPREC
 70
3
  9
$FILLETRAD
 40
2.0
  9
$AUNITS
 70
0
  9
$AUPREC
 70
1
  9
$CHAMFERA
 40
1.0E+001
  9
$CHAMFERB
 40
1.0E+001
  9
$ANGBASE
 50
0.0
  9
$ANGDIR
 70
0
  9
$PEXTMIN
 10
0.0
 20
0.0
 30
0.0
  9
$PEXTMAX
 10
5.94E+002
 20
4.2E+002
 30
0.0
  9
$PLIMMIN
 10
0.0
 20
0.0
  9
$PLIMMAX
 10
5.94E+002
 20
4.2E+002
  9
$PDMODE
 70
2
  9
$PDSIZE
 40
-1.0E-002
  9
$SPLINETYPE
 70
6
  9
$TILEMODE
 70
1
  0
ENDSEC
  0
SECTION
  2
TABLES
  0
TABLE
  2
VPORT
 70
2
  0
VPORT
  2
*Active
 70
0
 10
0.0
 20
0.0
 11
5.94E+002
 21
4.2E+002
 12
2.97E+002
 22
2.1E+002
 13
0.0
 23
0.0
 14
1.0
 24
1.0
 15
0.0
 25
0.0
 16
0.0
 26
0.0
 36
1.0
 17
0.0
 27
0.0
 37
0.0
 40
4.2E+002
 41
1.4142857
 42
5.0E+001
 43
0.0
 44
0.0
 50
0.0
 51
0.0
 71
0
 72
100
 73
1
 74
3
 75
0
 76
0
 77
0
 78
0
  0
ENDTAB
  0
TABLE
  2
LTYPE
 70
7
  0
LTYPE
  2
HIDDENNEW0
  3
_ 
 70
64
 72
65
 73
3
 40
4.5
 49
1.5
 49
-1.5
 49
1.5
  0
LTYPE
  2
HIDDENNEW1
  3
_ 
 70
64
 72
65
 73
3
 40
4.5
 49
1.5
 49
-1.5
 49
1.5
  0
LTYPE
  2
HIDDEN
  3
_ 
 70
64
 72
65
 73
3
 40
4.5
 49
1.5
 49
-1.5
 49
1.5
  0
LTYPE
  2
CENTERLINE
  3
_ 
 70
64
 72
65
 73
5
 40
3.0E+001
 49
1.2E+001
 49
-1.5
 49
3.0
 49
-1.5
 49
1.2E+001
  0
LTYPE
  2
PHANTOM
  3
_ 
 70
64
 72
65
 73
7
 40
2.95E+001
 49
9.5
 49
-1.5
 49
3.0
 49
-1.5
 49
3.0
 49
-1.5
 49
9.5
  0
LTYPE
  2
SHORT_DASH
  3
_ 
 70
64
 72
65
 73
3
 40
3.0
 49
7.5E-001
 49
-1.5
 49
7.5E-001
  0
LTYPE
  2
LONG_DASH
  3
_ 
 70
64
 72
65
 73
3
 40
9.0
 49
2.25
 49
-4.5
 49
2.25
  0
ENDTAB
  0
TABLE
  2
LAYER
 70
258
  0
LAYER
  2
1
 70
0
 62
7
  6
CONTINUOUS
  0
LAYER
  2
2
 70
0
 62
7
  6
CONTINUOUS
  0
LAYER
  2
3
 70
0
 62
7
  6
CONTINUOUS
  0
LAYER
  2
4
 70
0
 62
7
  6
CONTINUOUS
  0
LAYER
  2
5
 70
0
 62
7
  6
CONTINUOUS
  0
LAYER
  2
6
 70
0
 62
7
  6
CONTINUOUS
  0
LAYER
  2
7
 70
0
 62
7
  6
CONTINUOUS
  0
LAYER
  2
8
 70
0
 62
7
  6
CONTINUOUS
  0
LAYER
  2
9
 70
0
 62
7
  6
CONTINUOUS
  0
LAYER
  2
10
 70
0
 62
7
  6
CONTINUOUS
  0
LAYER
  2
11
 70
0
 62
7
  6
CONTINUOUS
  0
LAYER
  2
12
 70
0
 62
7
  6
CONTINUOUS
  0
LAYER
  2
13
 70
0
 62
7
  6
CONTINUOUS
  0
LAYER
  2
14
 70
0
 62
7
  6
CONTINUOUS
  0
LAYER
  2
15
 70
0
 62
7
  6
CONTINUOUS
  0
LAYER
  2
16
 70
0
 62
7
  6
CONTINUOUS
  0
LAYER
  2
17
 70
0
 62
7
  6
CONTINUOUS
  0
LAYER
  2
18
 70
0
 62
7
  6
CONTINUOUS
  0
LAYER
  2
19
 70
0
 62
7
  6
CONTINUOUS
  0
LAYER
  2
20
 70
0
 62
7
  6
CONTINUOUS
  0
LAYER
  2
21
 70
0
 62
7
  6
CONTINUOUS
  0
LAYER
  2
22
 70
0
 62
7
  6
CONTINUOUS
  0
LAYER
  2
23
 70
0
 62
7
  6
CONTINUOUS
  0
LAYER
  2
24
 70
0
 62
7
  6
CONTINUOUS
  0
LAYER
  2
25
 70
0
 62
7
  6
CONTINUOUS
  0
LAYER
  2
26
 70
0
 62
7
  6
CONTINUOUS
  0
LAYER
  2
27
 70
0
 62
7
  6
CONTINUOUS
  0
LAYER
  2
28
 70
0
 62
7
  6
CONTINUOUS
  0
LAYER
  2
29
 70
0
 62
7
  6
CONTINUOUS
  0
LAYER
  2
30
 70
0
 62
7
  6
CONTINUOUS
  0
LAYER
  2
31
 70
0
 62
7
  6
CONTINUOUS
  0
LAYER
  2
32
 70
0
 62
7
  6
CONTINUOUS
  0
LAYER
  2
33
 70
0
 62
7
  6
CONTINUOUS
  0
LAYER
  2
34
 70
0
 62
7
  6
CONTINUOUS
  0
LAYER
  2
35
 70
0
 62
7
  6
CONTINUOUS
  0
LAYER
  2
36
 70
0
 62
7
  6
CONTINUOUS
  0
LAYER
  2
37
 70
0
 62
7
  6
CONTINUOUS
  0
LAYER
  2
38
 70
0
 62
7
  6
CONTINUOUS
  0
LAYER
  2
39
 70
0
 62
7
  6
CONTINUOUS
  0
LAYER
  2
40
 70
0
 62
7
  6
CONTINUOUS
  0
LAYER
  2
41
 70
0
 62
7
  6
CONTINUOUS
  0
LAYER
  2
42
 70
0
 62
7
  6
CONTINUOUS
  0
LAYER
  2
43
 70
0
 62
7
  6
CONTINUOUS
  0
LAYER
  2
44
 70
0
 62
7
  6
CONTINUOUS
  0
LAYER
  2
45
 70
0
 62
7
  6
CONTINUOUS
  0
LAYER
  2
46
 70
0
 62
7
  6
CONTINUOUS
  0
LAYER
  2
47
 70
0
 62
7
  6
CONTINUOUS
  0
LAYER
  2
48
 70
0
 62
7
  6
CONTINUOUS
  0
LAYER
  2
49
 70
0
 62
7
  6
CONTINUOUS
  0
LAYER
  2
50
 70
0
 62
7
  6
CONTINUOUS
  0
LAYER
  2
51
 70
0
 62
7
  6
CONTINUOUS
  0
LAYER
  2
52
 70
0
 62
7
  6
CONTINUOUS
  0
LAYER
  2
53
 70
0
 62
7
  6
CONTINUOUS
  0
LAYER
  2
54
 70
0
 62
7
  6
CONTINUOUS
  0
LAYER
  2
55
 70
0
 62
7
  6
CONTINUOUS
  0
LAYER
  2
56
 70
0
 62
7
  6
CONTINUOUS
  0
LAYER
  2
57
 70
0
 62
7
  6
CONTINUOUS
  0
LAYER
  2
58
 70
0
 62
7
  6
CONTINUOUS
  0
LAYER
  2
59
 70
0
 62
7
  6
CONTINUOUS
  0
LAYER
  2
60
 70
0
 62
7
  6
CONTINUOUS
  0
LAYER
  2
61
 70
0
 62
7
  6
CONTINUOUS
  0
LAYER
  2
62
 70
0
 62
7
  6
CONTINUOUS
  0
LAYER
  2
63
 70
0
 62
7
  6
CONTINUOUS
  0
LAYER
  2
64
 70
0
 62
7
  6
CONTINUOUS
  0
LAYER
  2
65
 70
0
 62
7
  6
CONTINUOUS
  0
LAYER
  2
66
 70
0
 62
7
  6
CONTINUOUS
  0
LAYER
  2
67
 70
0
 62
7
  6
CONTINUOUS
  0
LAYER
  2
68
 70
0
 62
7
  6
CONTINUOUS
  0
LAYER
  2
69
 70
0
 62
7
  6
CONTINUOUS
  0
LAYER
  2
70
 70
0
 62
7
  6
CONTINUOUS
  0
LAYER
  2
71
 70
0
 62
7
  6
CONTINUOUS
  0
LAYER
  2
72
 70
0
 62
7
  6
CONTINUOUS
  0
LAYER
  2
73
 70
0
 62
7
  6
CONTINUOUS
  0
LAYER
  2
74
 70
0
 62
7
  6
CONTINUOUS
  0
LAYER
  2
75
 70
0
 62
7
  6
CONTINUOUS
  0
LAYER
  2
76
 70
0
 62
7
  6
CONTINUOUS
  0
LAYER
  2
77
 70
0
 62
7
  6
CONTINUOUS
  0
LAYER
  2
78
 70
0
 62
7
  6
CONTINUOUS
  0
LAYER
  2
79
 70
0
 62
7
  6
CONTINUOUS
  0
LAYER
  2
80
 70
0
 62
7
  6
CONTINUOUS
  0
LAYER
  2
81
 70
0
 62
7
  6
CONTINUOUS
  0
LAYER
  2
82
 70
0
 62
7
  6
CONTINUOUS
  0
LAYER
  2
83
 70
0
 62
7
  6
CONTINUOUS
  0
LAYER
  2
84
 70
0
 62
7
  6
CONTINUOUS
  0
LAYER
  2
85
 70
0
 62
7
  6
CONTINUOUS
  0
LAYER
  2
86
 70
0
 62
7
  6
CONTINUOUS
  0
LAYER
  2
87
 70
0
 62
7
  6
CONTINUOUS
  0
LAYER
  2
88
 70
0
 62
7
  6
CONTINUOUS
  0
LAYER
  2
89
 70
0
 62
7
  6
CONTINUOUS
  0
LAYER
  2
90
 70
0
 62
7
  6
CONTINUOUS
  0
LAYER
  2
91
 70
0
 62
7
  6
CONTINUOUS
  0
LAYER
  2
92
 70
0
 62
7
  6
CONTINUOUS
  0
LAYER
  2
93
 70
0
 62
7
  6
CONTINUOUS
  0
LAYER
  2
94
 70
0
 62
7
  6
CONTINUOUS
  0
LAYER
  2
95
 70
0
 62
7
  6
CONTINUOUS
  0
LAYER
  2
96
 70
0
 62
7
  6
CONTINUOUS
  0
LAYER
  2
97
 70
0
 62
7
  6
CONTINUOUS
  0
LAYER
  2
98
 70
0
 62
7
  6
CONTINUOUS
  0
LAYER
  2
99
 70
0
 62
7
  6
CONTINUOUS
  0
LAYER
  2
2D_BEMASSUNG
 70
0
 62
1
  6
PHANTOM
  0
LAYER
  2
2D_SCHNITTVERLAUF_ETC
 70
0
 62
40
  6
CONTINUOUS
  0
LAYER
  2
102
 70
0
 62
7
  6
CONTINUOUS
  0
LAYER
  2
2D_TEXT
 70
0
 62
1
  6
CONTINUOUS
  0
LAYER
  2
2D_SICHTBARE_KANTEN
 70
0
 62
1
  6
HIDDENNEW0
  0
LAYER
  2
2D_VERDECKTE_KANTEN
 70
0
 62
1
  6
CONTINUOUS
  0
LAYER
  2
2D_MITTELLINIEN
 70
0
 62
1
  6
PHANTOM
  0
LAYER
  2
2D_REFERENZ-GEOMETRIE
 70
0
 62
1
  6
CONTINUOUS
  0
LAYER
  2
2D_SCHRAFFUR
 70
0
 62
1
  6
CONTINUOUS
  0
LAYER
  2
2D_SYMBOLE
 70
0
 62
1
  6
CONTINUOUS
  0
LAYER
  2
Drafting_Hidden_Entities
 70
1
 62
7
  6
CONTINUOUS
  0
ENDTAB
  0
TABLE
  2
STYLE
 70
1
  0
STYLE
  2
STANDARD
 70
64
 40
0.0
 41
1.0
 50
0.0
 71
0
 42
1.0
  3
monotxt.shx
  4

  0
ENDTAB
  0
TABLE
  2
VIEW
 70
0
  0
ENDTAB
  0
TABLE
  2
DIMSTYLE
 70
5
  0
DIMSTYLE
  2
DSTYLE1
 70
0
  3

  4

  5

  6

  7

 40
1.0
 41
7.0
 42
2.0
 43
3.8E-001
 44
2.0
 45
0.0
 46
0.0
 47
1.0E-001
 48
1.0E-001
 71
0
 72
0
 73
0
 74
0
 75
0
 76
0
 77
1
 78
11
140
7.0
141
9.0E-002
142
0.0
143
1.0
144
1.0
145
0.0
146
1.0
147
2.331
170
0
171
2
172
0
173
0
174
0
175
0
176
0
177
0
178
0
  0
DIMSTYLE
  2
DSTYLE2
 70
0
  3

  4

  5

  6

  7

 40
1.0
 41
8.0
 42
0.0
 43
3.8E-001
 44
3.0
 45
1.0E-003
 46
0.0
 47
1.0E-001
 48
1.0E-001
 71
0
 72
0
 73
0
 74
0
 75
0
 76
0
 77
1
 78
11
140
7.0
141
9.0E-002
142
0.0
143
3.9370079E-002
144
1.0
145
0.0
146
1.0
147
3.0
170
0
171
2
172
0
173
0
174
0
175
0
176
0
177
0
178
0
  0
DIMSTYLE
  2
DSTYLE3
 70
0
  3

  4

  5

  6

  7

 40
1.0
 41
8.0
 42
0.0
 43
3.8E-001
 44
3.0
 45
0.0
 46
0.0
 47
1.0E-001
 48
1.0E-001
 71
0
 72
0
 73
0
 74
0
 75
0
 76
0
 77
1
 78
11
140
7.0
141
9.0E-002
142
0.0
143
3.9370079E-002
144
1.0
145
0.0
146
1.0
147
3.0
170
0
171
2
172
0
173
0
174
0
175
0
176
0
177
0
178
0
  0
DIMSTYLE
  2
DSTYLE4
 70
0
  3

  4

  5

  6

  7

 40
1.0
 41
4.0
 42
0.0
 43
3.8E-001
 44
1.5
 45
0.0
 46
0.0
 47
1.0E-001
 48
1.0E-001
 71
0
 72
0
 73
0
 74
0
 75
0
 76
0
 77
1
 78
11
140
7.0
141
9.0E-002
142
0.0
143
3.9370079E-002
144
2.0
145
0.0
146
1.0
147
1.5
170
0
171
2
172
0
173
0
174
0
175
0
176
0
177
0
178
0
  0
DIMSTYLE
  2
DSTYLE5
 70
0
  3

  4

  5

  6

  7

 40
1.0
 41
4.0
 42
0.0
 43
3.8E-001
 44
1.5
 45
1.0E-003
 46
0.0
 47
1.0E-001
 48
1.0E-001
 71
0
 72
0
 73
0
 74
0
 75
0
 76
0
 77
1
 78
11
140
7.0
141
9.0E-002
142
0.0
143
3.9370079E-002
144
2.0
145
0.0
146
1.0
147
1.5
170
0
171
2
172
0
173
0
174
0
175
0
176
0
177
0
178
0
  0
ENDTAB
  0
ENDSEC
  0
SECTION
  2
BLOCKS
  0
BLOCK
  2
_AH12
  3
_AH
 10
0.0
 20
0.0
 70
64
  0
LINE
  8
0
  6
CONTINUOUS
 62
0
 10
0.0
 20
0.0
 11
1.0
 21
0.0
  0
LINE
  8
0
  6
CONTINUOUS
 62
0
 10
0.0
 20
0.0
 11
-1.0
 21
0.0
  0
ENDBLK
  0
BLOCK
  2
_AH13
  3
_AH
 10
0.0
 20
0.0
 70
64
  0
SOLID
  8
0
  6
CONTINUOUS
 62
0
 10
0.0
 20
0.0
 11
-1.0
 21
1.66667E-001
 12
-1.0
 22
-1.66667E-001
 13
0.0
 23
0.0
  0
ENDBLK
  0
BLOCK
  2
_AH14
  3
_AH
 10
0.0
 20
0.0
 70
64
  0
ENDBLK
  0
BLOCK
  2
_AH15
  3
_AH
 10
0.0
 20
0.0
 70
64
  0
CIRCLE
  8
0
  6
CONTINUOUS
 62
0
 10
0.0
 20
0.0
 40
1.66667E-001
  0
LINE
  8
0
  6
CONTINUOUS
 62
0
 10
0.0
 20
0.0
 11
-1.0
 21
0.0
  0
ENDBLK
  0
BLOCK
  2
_AH16
  3
_AH
 10
0.0
 20
0.0
 70
64
  0
POLYLINE
  8
0
  6
CONTINUOUS
 62
0
 66
1
 40
1.66667E-001
 41
1.66667E-001
 70
0
  0
VERTEX
  8
0
 42
1.0
 10
8.3335E-002
 20
0.0
 70
0
  0
VERTEX
  8
0
 42
1.0
 10
-8.3335E-002
 20
0.0
 70
0
  0
VERTEX
  8
0
 42
0.0
 10
8.3335E-002
 20
0.0
 70
0
  0
SEQEND
  0
LINE
  8
0
  6
CONTINUOUS
 62
0
 10
0.0
 20
0.0
 11
-1.0
 21
0.0
  0
ENDBLK
  0
BLOCK
  2
_AH17
  3
_AH
 10
0.0
 20
0.0
 70
64
  0
LINE
  8
0
  6
CONTINUOUS
 62
0
 10
-1.66667E-001
 20
-1.66667E-001
 11
1.66667E-001
 21
-1.66667E-001
  0
LINE
  8
0
  6
CONTINUOUS
 62
0
 10
1.66667E-001
 20
-1.66667E-001
 11
1.66667E-001
 21
1.66667E-001
  0
LINE
  8
0
  6
CONTINUOUS
 62
0
 10
1.66667E-001
 20
1.66667E-001
 11
-1.66667E-001
 21
1.66667E-001
  0
LINE
  8
0
  6
CONTINUOUS
 62
0
 10
-1.66667E-001
 20
1.66667E-001
 11
-1.66667E-001
 21
-1.66667E-001
  0
LINE
  8
0
  6
CONTINUOUS
 62
0
 10
0.0
 20
0.0
 11
-1.0
 21
0.0
  0
ENDBLK
  0
BLOCK
  2
_AH18
  3
_AH
 10
0.0
 20
0.0
 70
64
  0
SOLID
  8
0
  6
CONTINUOUS
 62
0
 10
-1.66667E-001
 20
-1.66667E-001
 11
1.66667E-001
 21
-1.66667E-001
 12
-1.66667E-001
 22
1.66667E-001
 13
1.66667E-001
 23
1.66667E-001
  0
LINE
  8
0
  6
CONTINUOUS
 62
0
 10
0.0
 20
0.0
 11
-1.0
 21
0.0
  0
ENDBLK
  0
BLOCK
  2
_AH19
  3
_AH
 10
0.0
 20
0.0
 70
64
  0
LINE
  8
0
  6
CONTINUOUS
 62
0
 10
-5.0E-001
 20
-5.0E-001
 11
5.0E-001
 21
5.0E-001
  0
LINE
  8
0
  6
CONTINUOUS
 62
0
 10
0.0
 20
0.0
 11
-1.0
 21
0.0
  0
ENDBLK
  0
BLOCK
  2
_AH20
  3
_AH
 10
0.0
 20
0.0
 70
64
  0
POLYLINE
  8
0
  6
CONTINUOUS
 62
0
 66
1
 40
5.0E-001
 41
5.0E-001
 70
0
  0
VERTEX
  8
0
 42
4.1421356E-001
 10
-1.66667E-001
 20
-1.66667E-001
 70
0
  0
VERTEX
  8
0
 42
0.0
 10
0.0
 20
0.0
 70
0
  0
SEQEND
  0
POLYLINE
  8
0
  6
CONTINUOUS
 62
0
 66
1
 40
5.0E-001
 41
5.0E-001
 70
0
  0
VERTEX
  8
0
 42
4.1421356E-001
 10
1.66667E-001
 20
1.66667E-001
 70
0
  0
VERTEX
  8
0
 42
0.0
 10
0.0
 20
0.0
 70
0
  0
SEQEND
  0
LINE
  8
0
  6
CONTINUOUS
 62
0
 10
0.0
 20
0.0
 11
-1.0
 21
0.0
  0
ENDBLK
  0
BLOCK
  2
_AH21
  3
_AH
 10
0.0
 20
0.0
 70
64
  0
LINE
  8
0
  6
CONTINUOUS
 62
0
 10
0.0
 20
0.0
 11
-1.0
 21
-1.66667E-001
  0
LINE
  8
0
  6
CONTINUOUS
 62
0
 10
-1.0
 20
-1.66667E-001
 11
-1.0
 21
1.66667E-001
  0
LINE
  8
0
  6
CONTINUOUS
 62
0
 10
-1.0
 20
1.66667E-001
 11
0.0
 21
0.0
  0
ENDBLK
  0
BLOCK
  2
ZZ
 10
0.0
 20
0.0
 70
0
  0
LINE
  8
2D_SICHTBARE_KANTEN
  6
CONTINUOUS
 62
40
 10
5.0950435E+002
 20
2.2799995E+002
 11
5.0950435E+002
 21
2.257E+002
  0
LINE
  8
2D_SICHTBARE_KANTEN
  6
CONTINUOUS
 62
40
 10
5.0950435E+002
 20
2.257E+002
 11
5.2650435E+002
 21
2.257E+002
  0
DIMENSION
  8
2D_BEMASSUNG
  6
CONTINUOUS
 62
4
  2
*D123
  3
DSTYLE1
 10
1.1000398E+002
 20
1.1524899E+002
 11
3.9159931E+001
 21
1.2108199E+002
 70
128
 13
-3.1995617E+001
 23
1.1699E+002
 14
1.1000398E+002
 24
1.24684E+002
 40
3.0
 50
0.0
1001
ACAD
1000
DSTYLE
1002
{
1070
173
1070
0
1070
5
1000
_AH13
1002
}
  0
DIMENSION
  8
2D_BEMASSUNG
  6
CONTINUOUS
 62
4
  2
*D124
  3
DSTYLE1
 10
9.1640604
 20
2.1125E+002
 11
3.3310603
 21
1.8405049E+002
 70
128
 13
4.2554183E+001
 23
2.15E+002
 14
5.2504383E+001
 24
2.1125E+002
 40
3.0
 50
9.0E+001
1001
ACAD
1000
DSTYLE
1002
{
1070
173
1070
0
1070
5
1000
_AH13
1002
}
  0
LINE
  8
2D_SICHTBARE_KANTEN
  6
CONTINUOUS
 62
40
 10
5.2650435E+002
 20
2.257E+002
 11
5.2650435E+002
 21
2.2799995E+002
  0
LINE
  8
2D_SICHTBARE_KANTEN
  6
CONTINUOUS
 62
40
 10
5.2402935E+002
 20
2.2579622E+002
 11
5.2402935E+002
 21
2.2549998E+002
  0
LINE
  8
2D_SICHTBARE_KANTEN
  6
CONTINUOUS
 62
40
 10
5.2402935E+002
 20
2.2549998E+002
 11
5.1197933E+002
 21
2.2549998E+002
  0
LINE
  8
2D_SICHTBARE_KANTEN
  6
CONTINUOUS
 62
40
 10
5.1197933E+002
 20
2.2549998E+002
 11
5.1197933E+002
 21
2.257E+002
  0
LINE
  8
2D_SICHTBARE_KANTEN
  6
CONTINUOUS
 62
40
 10
5.1302935E+002
 20
2.2549998E+002
 11
5.1302935E+002
 21
2.2449998E+002
  0
LINE
  8
2D_SICHTBARE_KANTEN
  6
CONTINUOUS
 62
40
 10
5.229793E+002
 20
2.2549998E+002
 11
5.229793E+002
 21
2.2449998E+002
  0
DIMENSION
  8
2D_BEMASSUNG
  6
CONTINUOUS
 62
4
  2
*D131
  3
DSTYLE1
 10
9.1620604
 20
2.5799995E+002
 11
3.3290603
 21
2.3872161E+002
 70
128
 13
3.7153983E+001
 23
2.15E+002
 14
5.2504383E+001
 24
2.5799995E+002
 40
3.0
 50
9.0E+001
1001
ACAD
1000
DSTYLE
1002
{
1070
173
1070
0
1070
5
1000
_AH13
1002
}
  0
LINE
  8
2D_SICHTBARE_KANTEN
  6
CONTINUOUS
 62
40
 10
1.3800437E+002
 20
2.2449998E+002
 11
1.3800437E+002
 21
2.2499998E+002
  0
ARC
  8
2D_SICHTBARE_KANTEN
  6
CONTINUOUS
 62
40
 10
1.3850437E+002
 20
2.2499998E+002
 40
5.0000028E-001
 50
9.0E+001
 51
1.8E+002
  0
LINE
  8
2D_SICHTBARE_KANTEN
  6
CONTINUOUS
 62
40
 10
1.3850437E+002
 20
2.2549998E+002
 11
1.4750437E+002
 21
2.2549998E+002
  0
ARC
  8
2D_SICHTBARE_KANTEN
  6
CONTINUOUS
 62
40
 10
1.4750438E+002
 20
2.25E+002
 40
4.9998907E-001
 50
3.5999875E+002
 51
4.5000125E+002
  0
LINE
  8
2D_SICHTBARE_KANTEN
  6
CONTINUOUS
 62
40
 10
1.4800437E+002
 20
2.2499998E+002
 11
1.4800437E+002
 21
2.2449998E+002
  0
LINE
  8
2D_SICHTBARE_KANTEN
  6
CONTINUOUS
 62
40
 10
1.3200438E+002
 20
2.1125E+002
 11
1.3200438E+002
 21
2.1949998E+002
  0
LINE
  8
2D_SICHTBARE_KANTEN
  6
CONTINUOUS
 62
40
 10
1.3200438E+002
 20
2.1949998E+002
 11
1.5400438E+002
 21
2.1949998E+002
  0
LINE
  8
2D_SICHTBARE_KANTEN
  6
CONTINUOUS
 62
40
 10
1.5400438E+002
 20
2.1949998E+002
 11
1.5400438E+002
 21
2.1125E+002
  0
LINE
  8
2D_SICHTBARE_KANTEN
  6
CONTINUOUS
 62
40
 10
5.2900432E+002
 20
2.1949998E+002
 11
5.2900432E+002
 21
2.2449998E+002
  0
LINE
  8
2D_SICHTBARE_KANTEN
  6
CONTINUOUS
 62
40
 10
5.2900432E+002
 20
2.2449998E+002
 11
5.1113826E+002
 21
2.2449998E+002
  0
LINE
  8
2D_SICHTBARE_KANTEN
  6
CONTINUOUS
 62
40
 10
5.1113826E+002
 20
2.2449998E+002
 11
1.4890438E+002
 21
2.2449998E+002
  0
LINE
  8
2D_SICHTBARE_KANTEN
  6
CONTINUOUS
 62
40
 10
1.4890438E+002
 20
2.2449998E+002
 11
1.3200438E+002
 21
2.2449998E+002
  0
LINE
  8
2D_SICHTBARE_KANTEN
  6
CONTINUOUS
 62
40
 10
1.3200438E+002
 20
2.2449998E+002
 11
1.3200438E+002
 21
2.1949998E+002
  0
LINE
  8
2D_SICHTBARE_KANTEN
  6
CONTINUOUS
 62
40
 10
1.3200438E+002
 20
2.1949998E+002
 11
5.2900432E+002
 21
2.1949998E+002
  0
LINE
  8
2D_SICHTBARE_KANTEN
  6
CONTINUOUS
 62
40
 10
5.1151934E+002
 20
2.1949998E+002
 11
5.1151934E+002
 21
2.1899995E+002
  0
ARC
  8
2D_SICHTBARE_KANTEN
  6
CONTINUOUS
 62
40
 10
5.1201933E+002
 20
2.1899995E+002
 40
4.9999411E-001
 50
1.7999933E+002
 51
2.7000067E+002
  0
LINE
  8
2D_SICHTBARE_KANTEN
  6
CONTINUOUS
 62
40
 10
5.1201934E+002
 20
2.1849995E+002
 11
5.2398931E+002
 21
2.1849995E+002
  0
ARC
  8
2D_SICHTBARE_KANTEN
  6
CONTINUOUS
 62
40
 10
5.2398933E+002
 20
2.1899993E+002
 40
4.9998037E-001
 50
2.6999775E+002
 51
3.6000225E+002
  0
LINE
  8
2D_SICHTBARE_KANTEN
  6
CONTINUOUS
 62
40
 10
5.2448931E+002
 20
2.1899995E+002
 11
5.2448931E+002
 21
2.1949998E+002
  0
LINE
  8
2D_SICHTBARE_KANTEN
  6
CONTINUOUS
 62
40
 10
5.2448931E+002
 20
2.1949998E+002
 11
5.1151934E+002
 21
2.1949998E+002
  0
LINE
  8
2D_SICHTBARE_KANTEN
  6
CONTINUOUS
 62
40
 10
5.2487039E+002
 20
2.245E+002
 11
5.2297931E+002
 21
2.245E+002
  0
LINE
  8
2D_SICHTBARE_KANTEN
  6
CONTINUOUS
 62
40
 10
5.1302935E+002
 20
2.245E+002
 11
5.1113827E+002
 21
2.245E+002
  0
LINE
  8
2D_MITTELLINIEN
  6
CENTERLINE
 62
1
 10
1.4300438E+002
 20
2.272961E+002
 11
1.4300438E+002
 21
2.0395783E+002
  0
CIRCLE
  8
2D_SICHTBARE_KANTEN
  6
CONTINUOUS
 62
1
 10
1.1000438E+002
 20
2.0E+002
 40
5.0
  0
CIRCLE
  8
2D_SICHTBARE_KANTEN
  6
CONTINUOUS
 62
1
 10
2.1800437E+002
 20
1.92E+002
 40
5.0
  0
LINE
  8
2D_MITTELLINIEN
  6
CENTERLINE
 62
1
 10
2.1800437E+002
 20
1.9916664E+002
 11
2.1800437E+002
 21
1.8473114E+002
  0
LINE
  8
2D_MITTELLINIEN
  6
CENTERLINE
 62
1
 10
2.2499689E+002
 20
1.92E+002
 11
2.1076188E+002
 21
1.92E+002
  0
LINE
  8
2D_MITTELLINIEN
  6
CENTERLINE
 62
1
 10
1.6200438E+002
 20
1.9916664E+002
 11
1.6200438E+002
 21
1.8473114E+002
  0
LINE
  8
2D_MITTELLINIEN
  6
CENTERLINE
 62
1
 10
1.6899691E+002
 20
1.92E+002
 11
1.5476189E+002
 21
1.92E+002
  0
CIRCLE
  8
2D_SICHTBARE_KANTEN
  6
CONTINUOUS
 62
1
 10
1.6200438E+002
 20
1.92E+002
 40
5.0
  0
CIRCLE
  8
2D_SICHTBARE_KANTEN
  6
CONTINUOUS
 62
1
 10
2.7000436E+002
 20
1.57E+002
 40
5.0
  0
LINE
  8
99
  6
CONTINUOUS
 62
1
 10
1.1000438E+002
 20
1.4949716E+002
 11
1.1000438E+002
 21
2.077739E+002
  0
LINE
  8
2D_MITTELLINIEN
  6
CENTERLINE
 62
1
 10
1.0394536E+002
 20
2.0E+002
 11
1.176086E+002
 21
2.0E+002
  0
LINE
  8
2D_MITTELLINIEN
  6
CENTERLINE
 62
1
 10
2.7606338E+002
 20
1.57E+002
 11
2.6240014E+002
 21
1.57E+002
  0
LINE
  8
2D_MITTELLINIEN
  6
CENTERLINE
 62
1
 10
2.7000435E+002
 20
1.4949716E+002
 11
2.7000435E+002
 21
2.0748973E+002
  0
LINE
  8
2D_MITTELLINIEN
  6
CENTERLINE
 62
1
 10
2.7606338E+002
 20
1.73E+002
 11
2.6240014E+002
 21
1.73E+002
  0
LINE
  8
2D_MITTELLINIEN
  6
CENTERLINE
 62
1
 10
2.7606338E+002
 20
1.84E+002
 11
2.6240014E+002
 21
1.84E+002
  0
ARC
  8
2D_SICHTBARE_KANTEN
  6
CONTINUOUS
 62
40
 10
-3.1995617E+001
 20
2.7992E+001
 40
1.5001402E+001
 50
2.4000309E+002
 51
2.9999691E+002
  0
ARC
  8
2D_SICHTBARE_KANTEN
  6
CONTINUOUS
 62
40
 10
-3.1995617E+001
 20
8.201E+001
 40
1.499967E+001
 50
5.9999272E+001
 51
1.2000073E+002
  0
LINE
  8
2D_SICHTBARE_KANTEN
  6
CONTINUOUS
 62
40
 10
-2.4495617E+001
 20
1.5E+001
 11
-3.9495617E+001
 21
1.5E+001
  0
LINE
  8
2D_SICHTBARE_KANTEN
  6
CONTINUOUS
 62
40
 10
-3.9495617E+001
 20
1.5E+001
 11
-3.9495617E+001
 21
5.5E+001
  0
LINE
  8
2D_SICHTBARE_KANTEN
  6
CONTINUOUS
 62
40
 10
-3.9495617E+001
 20
5.5E+001
 11
-2.4495617E+001
 21
5.5E+001
  0
LINE
  8
2D_SICHTBARE_KANTEN
  6
CONTINUOUS
 62
40
 10
-2.4495617E+001
 20
5.5E+001
 11
-2.4495617E+001
 21
1.5E+001
  0
LINE
  8
2D_SICHTBARE_KANTEN
  6
CONTINUOUS
 62
40
 10
-2.4495617E+001
 20
5.5E+001
 11
-3.9495617E+001
 21
5.5E+001
  0
LINE
  8
2D_SICHTBARE_KANTEN
  6
CONTINUOUS
 62
40
 10
-3.9495617E+001
 20
5.5E+001
 11
-3.9495617E+001
 21
9.5E+001
  0
LINE
  8
2D_SICHTBARE_KANTEN
  6
CONTINUOUS
 62
40
 10
-3.9495617E+001
 20
9.5E+001
 11
-2.4495617E+001
 21
9.5E+001
  0
LINE
  8
2D_SICHTBARE_KANTEN
  6
CONTINUOUS
 62
40
 10
-2.4495617E+001
 20
9.5E+001
 11
-2.4495617E+001
 21
5.5E+001
  0
LINE
  8
2D_MITTELLINIEN
  6
CENTERLINE
 62
1
 10
-3.1995617E+001
 20
5.866
 11
-3.1995617E+001
 21
1.02166E+002
  0
LINE
  8
2D_SICHTBARE_KANTEN
  6
CONTINUOUS
 62
40
 10
-3.5995617E+001
 20
0.0
 11
-3.5995617E+001
 21
1.3534E+001
  0
LINE
  8
2D_SICHTBARE_KANTEN
  6
CONTINUOUS
 62
40
 10
-3.5995617E+001
 20
9.6468E+001
 11
-3.5995617E+001
 21
2.19E+002
  0
LINE
  8
2D_SICHTBARE_KANTEN
  6
CONTINUOUS
 62
40
 10
-3.5995617E+001
 20
2.19E+002
 11
1.3200398E+002
 21
2.19E+002
  0
LINE
  8
2D_SICHTBARE_KANTEN
  6
CONTINUOUS
 62
40
 10
5.2900432E+002
 20
2.19E+002
 11
6.7400398E+002
 21
2.19E+002
  0
LINE
  8
2D_SICHTBARE_KANTEN
  6
CONTINUOUS
 62
40
 10
-3.1995617E+001
 20
0.0
 11
-3.1995617E+001
 21
1.2992E+001
  0
LINE
  8
2D_SICHTBARE_KANTEN
  6
CONTINUOUS
 62
40
 10
-3.1995617E+001
 20
9.701E+001
 11
-3.1995617E+001
 21
2.15E+002
  0
LINE
  8
2D_SICHTBARE_KANTEN
  6
CONTINUOUS
 62
40
 10
-3.1995617E+001
 20
2.15E+002
 11
1.3200438E+002
 21
2.15E+002
  0
LINE
  8
2D_SICHTBARE_KANTEN
  6
CONTINUOUS
 62
40
 10
1.5400438E+002
 20
2.15E+002
 11
6.7400398E+002
 21
2.15E+002
  0
LINE
  8
2D_MITTELLINIEN
  6
CENTERLINE
 62
1
 10
6.7400398E+002
 20
3.22524E+002
 11
6.7400398E+002
 21
-1.5468E+001
  0
LINE
  8
2D_MITTELLINIEN
  6
CENTERLINE
 62
1
 10
2.7606338E+002
 20
2.0E+002
 11
2.6240014E+002
 21
2.0E+002
  0
LINE
  8
2D_MITTELLINIEN
  6
CENTERLINE
 62
1
 10
1.0394536E+002
 20
1.57E+002
 11
1.176086E+002
 21
1.57E+002
  0
LINE
  8
2D_MITTELLINIEN
  6
CENTERLINE
 62
1
 10
1.0394536E+002
 20
1.73E+002
 11
1.176086E+002
 21
1.73E+002
  0
LINE
  8
2D_MITTELLINIEN
  6
CENTERLINE
 62
1
 10
1.0394536E+002
 20
1.84E+002
 11
1.176086E+002
 21
1.84E+002
  0
CIRCLE
  8
2D_SICHTBARE_KANTEN
  6
CONTINUOUS
 62
1
 10
2.7000436E+002
 20
1.73E+002
 40
5.0
  0
CIRCLE
  8
2D_SICHTBARE_KANTEN
  6
CONTINUOUS
 62
1
 10
2.7000436E+002
 20
1.84E+002
 40
5.0
  0
CIRCLE
  8
2D_SICHTBARE_KANTEN
  6
CONTINUOUS
 62
1
 10
2.7000436E+002
 20
2.0E+002
 40
5.0
  0
CIRCLE
  8
2D_SICHTBARE_KANTEN
  6
CONTINUOUS
 62
1
 10
1.1000438E+002
 20
1.57E+002
 40
5.0
  0
CIRCLE
  8
2D_SICHTBARE_KANTEN
  6
CONTINUOUS
 62
1
 10
1.1000438E+002
 20
1.73E+002
 40
5.0
  0
CIRCLE
  8
2D_SICHTBARE_KANTEN
  6
CONTINUOUS
 62
1
 10
1.1000438E+002
 20
1.84E+002
 40
5.0
  0
LINE
  8
2D_SICHTBARE_KANTEN
  6
CONTINUOUS
 62
40
 10
6.3004383E+001
 20
1.5125E+002
 11
6.2504383E+001
 21
1.5125E+002
  0
LINE
  8
2D_SICHTBARE_KANTEN
  6
CONTINUOUS
 62
40
 10
6.2504383E+001
 20
1.5125E+002
 11
5.2504383E+001
 21
1.5125E+002
  0
LINE
  8
2D_SICHTBARE_KANTEN
  6
CONTINUOUS
 62
40
 10
5.2504383E+001
 20
1.5125E+002
 11
5.2504383E+001
 21
2.1125E+002
  0
LINE
  8
2D_SICHTBARE_KANTEN
  6
CONTINUOUS
 62
40
 10
5.2504383E+001
 20
2.1125E+002
 11
6.2504383E+001
 21
2.1125E+002
  0
LINE
  8
2D_SICHTBARE_KANTEN
  6
CONTINUOUS
 62
40
 10
6.2504383E+001
 20
2.1125E+002
 11
6.3004383E+001
 21
2.1125E+002
  0
LINE
  8
2D_SICHTBARE_KANTEN
  6
CONTINUOUS
 62
40
 10
6.3004383E+001
 20
2.1125E+002
 11
3.1700435E+002
 21
2.1125E+002
  0
LINE
  8
2D_SICHTBARE_KANTEN
  6
CONTINUOUS
 62
40
 10
3.1700435E+002
 20
2.1125E+002
 11
3.1750435E+002
 21
2.1125E+002
  0
LINE
  8
2D_SICHTBARE_KANTEN
  6
CONTINUOUS
 62
40
 10
3.1750435E+002
 20
2.1125E+002
 11
3.2750435E+002
 21
2.1125E+002
  0
LINE
  8
2D_SICHTBARE_KANTEN
  6
CONTINUOUS
 62
40
 10
3.2750435E+002
 20
2.1125E+002
 11
3.2750435E+002
 21
1.5125E+002
  0
LINE
  8
2D_SICHTBARE_KANTEN
  6
CONTINUOUS
 62
40
 10
3.1750435E+002
 20
1.5125E+002
 11
3.1700435E+002
 21
1.5125E+002
  0
LINE
  8
2D_SICHTBARE_KANTEN
  6
CONTINUOUS
 62
40
 10
3.2750435E+002
 20
1.5125E+002
 11
6.3004383E+001
 21
1.5125E+002
  0
LINE
  8
2D_SICHTBARE_KANTEN
  6
CONTINUOUS
 62
40
 10
3.1750435E+002
 20
1.5175E+002
 11
3.1750435E+002
 21
1.5125E+002
  0
LINE
  8
2D_MITTELLINIEN
  6
CENTERLINE
 62
1
 10
1.1000438E+002
 20
1.4949716E+002
 11
1.1000438E+002
 21
1.8052255E+002
  0
LINE
  8
2D_MITTELLINIEN
  6
CENTERLINE
 62
1
 10
1.1000438E+002
 20
1.8052255E+002
 11
1.1000438E+002
 21
2.0421332E+002
  0
LINE
  8
2D_MITTELLINIEN
  6
CENTERLINE
 62
1
 10
2.7000436E+002
 20
1.4949716E+002
 11
2.7000436E+002
 21
1.8148209E+002
  0
LINE
  8
2D_MITTELLINIEN
  6
CENTERLINE
 62
1
 10
2.7000436E+002
 20
1.8148209E+002
 11
2.7000436E+002
 21
2.04755E+002
  0
LINE
  8
2D_SICHTBARE_KANTEN
  6
CONTINUOUS
 62
40
 10
1.3975438E+002
 20
2.195E+002
 11
1.4625438E+002
 21
2.195E+002
  0
LINE
  8
2D_MITTELLINIEN
  6
CENTERLINE
 62
1
 10
5.1800432E+002
 20
2.1745738E+002
 11
5.1800432E+002
 21
2.3120024E+002
  0
LINE
  8
2D_SICHTBARE_KANTEN
  6
CONTINUOUS
 62
40
 10
1.3710438E+002
 20
2.195E+002
 11
1.4890438E+002
 21
2.195E+002
  0
LINE
  8
2D_SICHTBARE_KANTEN
  6
CONTINUOUS
 62
40
 10
5.2400432E+002
 20
2.1949998E+002
 11
5.229793E+002
 21
2.1949998E+002
  0
LINE
  8
2D_SICHTBARE_KANTEN
  6
CONTINUOUS
 62
40
 10
5.1302935E+002
 20
2.1949998E+002
 11
5.1200432E+002
 21
2.1949998E+002
  0
DIMENSION
  8
2D_BEMASSUNG
  6
CONTINUOUS
 62
1
  1
84
  2
*D220
  3
DSTYLE2
 10
5.2504383E+001
 20
1.3693352E+002
 11
8.6209233E-001
 21
1.4343552E+002
 70
128
 13
-3.1995617E+001
 23
9.701E+001
 14
5.2504383E+001
 24
1.5125E+002
 40
1.0E+001
 50
0.0
1001
ACAD
1000
DSTYLE
1002
{
1070
173
1070
0
1070
5
1000
_AH13
1002
}
  0
TEXT
  8
2D_TEXT
  6
CONTINUOUS
 62
1
 10
1.0556392E+001
 20
1.4692547E+002
 40
7.0
  1
(80)
 41
8.0E-001
  0
DIMENSION
  8
2D_BEMASSUNG
  6
CONTINUOUS
 62
1
  2
*D222
  3
DSTYLE2
 10
3.32154E+001
 20
2.4949998E+002
 11
2.67134E+001
 21
2.4209935E+002
 70
128
 13
1.1275438E+002
 23
2.3799998E+002
 14
6.0189064E+001
 24
2.4949998E+002
 40
1.0E+001
 50
9.0E+001
1001
ACAD
1000
DSTYLE
1002
{
1070
173
1070
0
1070
5
1000
_AH13
1002
}
  0
TEXT
  8
2D_TEXT
  6
CONTINUOUS
 62
1
 10
-1.6692312E+001
 20
2.8109783E+002
 40
7.0
  1
%%c8 (24V DC)
 41
8.0E-001
  0
LINE
  8
2D_SICHTBARE_KANTEN
  6
CONTINUOUS
 62
1
 10
-1.755033E+001
 20
2.7737975E+002
 11
4.394096E+001
 21
2.7737975E+002
  0
LINE
  8
2D_SICHTBARE_KANTEN
  6
CONTINUOUS
 62
1
 10
4.394096E+001
 20
2.7737975E+002
 11
6.7004344E+001
 21
2.4929173E+002
  0
DIMENSION
  8
2D_BEMASSUNG
  6
CONTINUOUS
 62
1
  2
*D226
  3
DSTYLE2
 10
1.1000438E+002
 20
1.1579241E+002
 11
1.9118204E+002
 21
1.2229441E+002
 70
128
 13
2.7000436E+002
 23
1.4949716E+002
 14
1.1000438E+002
 24
1.4949716E+002
 40
1.0E+001
 50
0.0
1001
ACAD
1000
DSTYLE
1002
{
1070
173
1070
0
1070
5
1000
_AH13
1002
}
  0
DIMENSION
  8
2D_BEMASSUNG
  6
CONTINUOUS
 62
1
  2
*D227
  3
DSTYLE2
 10
1.1000455E+002
 20
1.3226177E+002
 11
1.3746419E+002
 21
1.3876383E+002
 70
128
 13
1.1800438E+002
 23
2.3083507E+002
 14
1.1000438E+002
 24
2.077739E+002
 40
1.0E+001
 50
1.8000012E+002
1001
ACAD
1000
DSTYLE
1002
{
1070
173
1070
0
1070
5
1000
_AH13
1002
}
  0
LINE
  8
2D_MITTELLINIEN
  6
CENTERLINE
 62
1
 10
5.4601614E+002
 20
2.4507423E+002
 11
5.4600237E+002
 21
2.3067516E+002
  0
LINE
  8
2D_MITTELLINIEN
  6
CENTERLINE
 62
1
 10
5.5125435E+002
 20
2.3799998E+002
 11
5.4100435E+002
 21
2.3799998E+002
  0
CIRCLE
  8
2D_SICHTBARE_KANTEN
  6
CONTINUOUS
 62
1
 10
5.4600937E+002
 20
2.3799998E+002
 40
3.0
  0
LINE
  8
2D_SICHTBARE_KANTEN
  6
CONTINUOUS
 62
40
 10
5.7050438E+002
 20
2.5799995E+002
 11
5.2504383E+001
 21
2.5799995E+002
  0
LINE
  8
2D_SICHTBARE_KANTEN
  6
CONTINUOUS
 62
40
 10
5.7050438E+002
 20
2.2799995E+002
 11
5.2504383E+001
 21
2.2799995E+002
  0
LINE
  8
2D_SICHTBARE_KANTEN
  6
CONTINUOUS
 62
40
 10
5.7050438E+002
 20
2.2799995E+002
 11
5.7050438E+002
 21
2.5799995E+002
  0
LINE
  8
2D_SICHTBARE_KANTEN
  6
CONTINUOUS
 62
40
 10
5.2504383E+001
 20
2.2799995E+002
 11
5.2504383E+001
 21
2.5799995E+002
  0
LINE
  8
2D_MITTELLINIEN
  6
CENTERLINE
 62
1
 10
1.1800438E+002
 20
2.3083507E+002
 11
1.1800435E+002
 21
2.4500174E+002
  0
LINE
  8
2D_MITTELLINIEN
  6
CENTERLINE
 62
1
 10
1.2300438E+002
 20
2.3799998E+002
 11
1.1275438E+002
 21
2.3799998E+002
  0
CIRCLE
  8
2D_SICHTBARE_KANTEN
  6
CONTINUOUS
 62
1
 10
1.1800437E+002
 20
2.3799998E+002
 40
3.0
  0
LINE
  8
2D_MITTELLINIEN
  6
CENTERLINE
 62
1
 10
7.3750696E+001
 20
2.4949998E+002
 11
6.0189064E+001
 21
2.4949998E+002
  0
LINE
  8
2D_MITTELLINIEN
  6
CENTERLINE
 62
1
 10
6.700436E+001
 20
2.4163191E+002
 11
6.7004327E+001
 21
2.5695155E+002
  0
CIRCLE
  8
2D_SICHTBARE_KANTEN
  6
CONTINUOUS
 62
1
 10
6.7004343E+001
 20
2.4949998E+002
 40
4.0
  0
ARC
  8
2D_SICHTBARE_KANTEN
  6
CONTINUOUS
 62
40
 10
-3.1995617E+001
 20
2.7992E+001
 40
1.5001402E+001
 50
2.4000309E+002
 51
2.9999691E+002
  0
ARC
  8
2D_SICHTBARE_KANTEN
  6
CONTINUOUS
 62
40
 10
-3.1995617E+001
 20
8.201E+001
 40
1.499967E+001
 50
5.9999272E+001
 51
1.2000073E+002
  0
LINE
  8
2D_SICHTBARE_KANTEN
  6
CONTINUOUS
 62
40
 10
-2.4495617E+001
 20
1.5E+001
 11
-3.9495617E+001
 21
1.5E+001
  0
LINE
  8
2D_SICHTBARE_KANTEN
  6
CONTINUOUS
 62
40
 10
-3.9495617E+001
 20
1.5E+001
 11
-3.9495617E+001
 21
5.5E+001
  0
LINE
  8
2D_SICHTBARE_KANTEN
  6
CONTINUOUS
 62
40
 10
-3.9495617E+001
 20
5.5E+001
 11
-2.4495617E+001
 21
5.5E+001
  0
LINE
  8
2D_SICHTBARE_KANTEN
  6
CONTINUOUS
 62
40
 10
-2.4495617E+001
 20
5.5E+001
 11
-2.4495617E+001
 21
1.5E+001
  0
LINE
  8
2D_SICHTBARE_KANTEN
  6
CONTINUOUS
 62
40
 10
-2.4495617E+001
 20
5.5E+001
 11
-3.9495617E+001
 21
5.5E+001
  0
LINE
  8
2D_SICHTBARE_KANTEN
  6
CONTINUOUS
 62
40
 10
-3.9495617E+001
 20
5.5E+001
 11
-3.9495617E+001
 21
9.5E+001
  0
LINE
  8
2D_SICHTBARE_KANTEN
  6
CONTINUOUS
 62
40
 10
-3.9495617E+001
 20
9.5E+001
 11
-2.4495617E+001
 21
9.5E+001
  0
LINE
  8
2D_SICHTBARE_KANTEN
  6
CONTINUOUS
 62
40
 10
-2.4495617E+001
 20
9.5E+001
 11
-2.4495617E+001
 21
5.5E+001
  0
LINE
  8
2D_MITTELLINIEN
  6
CENTERLINE
 62
1
 10
-3.1995617E+001
 20
5.866
 11
-3.1995617E+001
 21
1.02166E+002
  0
LINE
  8
2D_MITTELLINIEN
  6
CENTERLINE
 62
1
 10
6.8405998E+002
 20
0.0
 11
-1.2563624E+002
 21
0.0
  0
LINE
  8
2D_SICHTBARE_KANTEN
  6
CONTINUOUS
 62
40
 10
-1.2099562E+002
 20
0.0
 11
-1.2099562E+002
 21
3.04E+002
  0
LINE
  8
2D_SICHTBARE_KANTEN
  6
CONTINUOUS
 62
40
 10
-3.5995617E+001
 20
2.19E+002
 11
-1.2099562E+002
 21
3.04E+002
  0
LINE
  8
2D_SICHTBARE_KANTEN
  6
CONTINUOUS
 62
40
 10
-1.2099562E+002
 20
3.04E+002
 11
6.7400398E+002
 21
3.04E+002
  0
DIMENSION
  8
2D_BEMASSUNG
  6
CONTINUOUS
 62
4
  2
*D256
  3
DSTYLE1
 10
6.7004325E+001
 20
3.2265534E+002
 11
1.9880672E+001
 21
3.2848834E+002
 70
128
 13
-3.1995617E+001
 23
9.701E+001
 14
6.7004325E+001
 24
2.5799995E+002
 40
3.0
 50
0.0
1001
ACAD
1000
DSTYLE
1002
{
1070
173
1070
0
1070
5
1000
_AH13
1002
}
  0
DIMENSION
  8
2D_BEMASSUNG
  6
CONTINUOUS
 62
4
  2
*D257
  3
DSTYLE1
 10
1.1800398E+002
 20
3.2149254E+002
 11
3.400961E+002
 21
3.2732554E+002
 70
128
 13
5.4601398E+002
 23
2.42842E+002
 14
1.1800398E+002
 24
2.4325E+002
 40
3.0
 50
0.0
1001
ACAD
1000
DSTYLE
1002
{
1070
173
1070
0
1070
5
1000
_AH13
1002
}
  0
POINT
  8
Drafting_Hidden_Entities
  6
CONTINUOUS
 62
1
 10
0.0
 20
0.0
  0
ENDBLK
  0
BLOCK
  2
_NEW00
 10
0.0
 20
0.0
 70
0
  0
TEXT
  8
2D_TEXT
  6
CONTINUOUS
 62
40
 10
2.1506884E+002
 20
3.4691481E+001
 40
1.0E+001
  1
p450404.she
 41
6.5454545E-001
 72
1
 11
1.7906884E+002
 21
2.9691481E+001
 73
2
  0
TEXT
  8
2D_TEXT
  6
CONTINUOUS
 62
150
 10
1.3993183E+002
 20
1.2917903E+001
 40
7.0
  1
Maßstab:
 41
6.4687502E-001
 72
1
 11
1.2181933E+002
 21
9.4179026
 73
2
  0
LINE
  8
1
  6
CONTINUOUS
 62
3
 10
0.0
 20
4.0E+001
 11
0.0
 21
7.56132E+001
  0
LINE
  8
1
  6
CONTINUOUS
 62
3
 10
0.0
 20
7.56132E+001
 11
2.26714E+002
 21
7.56132E+001
  0
LINE
  8
1
  6
CONTINUOUS
 62
3
 10
2.26714E+002
 20
7.56132E+001
 11
2.26714E+002
 21
4.0E+001
  0
TEXT
  8
2D_TEXT
  6
CONTINUOUS
 62
40
 10
5.4736656E+001
 20
5.9168662E+001
 40
1.0E+001
  1
Sturzmontage BG
 41
6.6176471E-001
  0
TEXT
  8
2D_TEXT
  6
CONTINUOUS
 62
150
 10
1.3405737E+002
 20
3.2116202E+001
 40
7.0
  1
Zng.Nr.
 41
6.4285716E-001
 72
1
 11
1.1830737E+002
 21
2.8616202E+001
 73
2
  0
TEXT
  8
2D_TEXT
  6
CONTINUOUS
 62
40
 10
9.1858944E+001
 20
3.486946E+001
 40
1.0E+001
  1
M.Schell
 41
6.46875E-001
 72
1
 11
6.5983944E+001
 21
2.986946E+001
 73
2
  0
TEXT
  8
2D_TEXT
  6
CONTINUOUS
 62
150
 10
2.2949667E+001
 20
3.2429518E+001
 40
7.0
  1
gez.
 41
6.1875002E-001
 72
1
 11
1.4287167E+001
 21
2.8929518E+001
 73
2
  0
TEXT
  8
2D_TEXT
  6
CONTINUOUS
 62
150
 10
2.5938815E+001
 20
1.3630694E+001
 40
7.0
  1
Datum
 41
6.3000002E-001
 72
1
 11
1.4913814E+001
 21
1.0130694E+001
 73
2
  0
TEXT
  8
2D_TEXT
  6
CONTINUOUS
 62
40
 10
1.6272375E+002
 20
1.5031474E+001
 40
1.0E+001
  1
1:2
 41
6.0E-001
 72
1
 11
1.5372375E+002
 21
1.0031474E+001
 73
2
  0
LINE
  8
1
  6
CONTINUOUS
 62
3
 10
1.79314E+002
 20
2.0E+001
 11
1.79314E+002
 21
0.0
  0
TEXT
  8
2D_TEXT
  6
CONTINUOUS
 62
40
 10
2.1114953E+002
 20
1.5442698E+001
 40
1.0E+001
  1
A 3
 41
6.0E-001
 72
1
 11
2.0214953E+002
 21
1.0442698E+001
 73
2
  0
LINE
  8
1
  6
CONTINUOUS
 62
3
 10
0.0
 20
4.0E+001
 11
2.26714E+002
 21
4.0E+001
  0
LINE
  8
1
  6
CONTINUOUS
 62
3
 10
2.26714E+002
 20
4.0E+001
 11
2.26714E+002
 21
0.0
  0
LINE
  8
1
  6
CONTINUOUS
 62
3
 10
2.26714E+002
 20
0.0
 11
0.0
 21
0.0
  0
LINE
  8
1
  6
CONTINUOUS
 62
3
 10
0.0
 20
0.0
 11
0.0
 21
4.0E+001
  0
LINE
  8
1
  6
CONTINUOUS
 62
3
 10
9.962E+001
 20
4.0E+001
 11
9.962E+001
 21
0.0
  0
LINE
  8
1
  6
CONTINUOUS
 62
3
 10
0.0
 20
2.0E+001
 11
2.26714E+002
 21
2.0E+001
  0
TEXT
  8
2D_TEXT
  6
CONTINUOUS
 62
150
 10
1.3993183E+002
 20
1.2917903E+001
 40
7.0
  1
Maßstab:
 41
6.4687502E-001
 72
1
 11
1.2181933E+002
 21
9.4179026
 73
2
  0
LINE
  8
1
  6
CONTINUOUS
 62
3
 10
0.0
 20
4.0E+001
 11
0.0
 21
7.56132E+001
  0
LINE
  8
1
  6
CONTINUOUS
 62
3
 10
0.0
 20
7.56132E+001
 11
2.26714E+002
 21
7.56132E+001
  0
LINE
  8
1
  6
CONTINUOUS
 62
3
 10
2.26714E+002
 20
7.56132E+001
 11
2.26714E+002
 21
4.0E+001
  0
TEXT
  8
2D_TEXT
  6
CONTINUOUS
 62
150
 10
4.6041464E+001
 20
5.1228346E+001
 40
7.0
  1
Benennung
 41
6.5000002E-001
 72
1
 11
2.5566463E+001
 21
4.7728346E+001
 73
2
  0
TEXT
  8
2D_TEXT
  6
CONTINUOUS
 62
150
 10
1.3405737E+002
 20
3.2116202E+001
 40
7.0
  1
Zng.Nr.
 41
6.4285716E-001
 72
1
 11
1.1830737E+002
 21
2.8616202E+001
 73
2
  0
TEXT
  8
2D_TEXT
  6
CONTINUOUS
 62
150
 10
2.2949667E+001
 20
3.2429518E+001
 40
7.0
  1
gez.
 41
6.1875002E-001
 72
1
 11
1.4287167E+001
 21
2.8929518E+001
 73
2
  0
TEXT
  8
2D_TEXT
  6
CONTINUOUS
 62
150
 10
2.5938815E+001
 20
1.3630694E+001
 40
7.0
  1
Datum
 41
6.3000002E-001
 72
1
 11
1.4913814E+001
 21
1.0130694E+001
 73
2
  0
LINE
  8
1
  6
CONTINUOUS
 62
3
 10
1.79314E+002
 20
2.0E+001
 11
1.79314E+002
 21
0.0
  0
LINE
  8
1
  6
CONTINUOUS
 62
3
 10
0.0
 20
4.0E+001
 11
2.26714E+002
 21
4.0E+001
  0
LINE
  8
1
  6
CONTINUOUS
 62
3
 10
2.26714E+002
 20
4.0E+001
 11
2.26714E+002
 21
0.0
  0
LINE
  8
1
  6
CONTINUOUS
 62
3
 10
2.26714E+002
 20
0.0
 11
0.0
 21
0.0
  0
LINE
  8
1
  6
CONTINUOUS
 62
3
 10
0.0
 20
0.0
 11
0.0
 21
4.0E+001
  0
LINE
  8
1
  6
CONTINUOUS
 62
3
 10
9.962E+001
 20
4.0E+001
 11
9.962E+001
 21
0.0
  0
LINE
  8
1
  6
CONTINUOUS
 62
3
 10
0.0
 20
2.0E+001
 11
2.26714E+002
 21
2.0E+001
  0
INSERT
  2
*TX68
  8
2D_TEXT
 10
6.5194393E+001
 20
2.4585753E+001
  0
POINT
  8
Drafting_Hidden_Entities
  6
CONTINUOUS
 62
1
 10
0.0
 20
0.0
  0
ENDBLK
  0
BLOCK
  2
9
 10
0.0
 20
0.0
 70
0
  0
LINE
  8
2D_MITTELLINIEN
  6
CENTERLINE
 62
1
 10
2.4886608E+002
 20
3.3824231E+001
 11
2.4885231E+002
 21
1.9425157E+001
  0
LINE
  8
2D_MITTELLINIEN
  6
CENTERLINE
 62
1
 10
2.5410429E+002
 20
2.6749985E+001
 11
2.4385429E+002
 21
2.6749985E+001
  0
CIRCLE
  8
2D_SICHTBARE_KANTEN
  6
CONTINUOUS
 62
1
 10
2.4885931E+002
 20
2.6749985E+001
 40
3.0
  0
LINE
  8
2D_SICHTBARE_KANTEN
  6
CONTINUOUS
 62
40
 10
4.9386596E+002
 20
4.6749954E+001
 11
-3.2914567E+002
 21
4.6749954E+001
  0
LINE
  8
2D_SICHTBARE_KANTEN
  6
CONTINUOUS
 62
40
 10
4.938522E+002
 20
1.6749954E+001
 11
-3.2914568E+002
 21
1.6749954E+001
  0
LINE
  8
2D_MITTELLINIEN
  6
CENTERLINE
 62
1
 10
-1.7914568E+002
 20
1.9585068E+001
 11
-1.7914571E+002
 21
3.375174E+001
  0
LINE
  8
2D_MITTELLINIEN
  6
CENTERLINE
 62
1
 10
-1.7414568E+002
 20
2.6749985E+001
 11
-1.8439568E+002
 21
2.6749985E+001
  0
CIRCLE
  8
2D_SICHTBARE_KANTEN
  6
CONTINUOUS
 62
1
 10
-1.7914569E+002
 20
2.6749985E+001
 40
3.0
  0
LINE
  8
2D_MITTELLINIEN
  6
CENTERLINE
 62
1
 10
-2.9739937E+002
 20
3.1749985E+001
 11
-3.10961E+002
 21
3.1749985E+001
  0
LINE
  8
2D_MITTELLINIEN
  6
CENTERLINE
 62
1
 10
-3.041457E+002
 20
2.3881914E+001
 11
-3.0414573E+002
 21
3.9201545E+001
  0
CIRCLE
  8
2D_SICHTBARE_KANTEN
  6
CONTINUOUS
 62
1
 10
-3.0414572E+002
 20
3.1749985E+001
 40
5.0
  0
LINE
  8
2D_MITTELLINIEN
  6
CENTERLINE
 62
1
 10
2.785522E+002
 20
3.1749985E+001
 11
2.6694004E+002
 21
3.1749985E+001
  0
LINE
  8
2D_MITTELLINIEN
  6
CENTERLINE
 62
1
 10
2.7286939E+002
 20
3.7283134E+001
 11
2.7285863E+002
 21
2.6025306E+001
  0
CIRCLE
  8
2D_SICHTBARE_KANTEN
  6
CONTINUOUS
 62
1
 10
2.728641E+002
 20
3.1749985E+001
 40
4.0
  0
LINE
  8
2D_SICHTBARE_KANTEN
  6
CONTINUOUS
 62
40
 10
-3.2914567E+002
 20
1.6749954E+001
 11
-3.2914574E+002
 21
4.6749954E+001
  0
LINE
  8
2D_SICHTBARE_KANTEN
  6
CONTINUOUS
 62
40
 10
4.9387855E+002
 20
4.6749942E+001
 11
4.9384986E+002
 21
1.6749956E+001
  0
POINT
  8
Drafting_Hidden_Entities
  6
CONTINUOUS
 62
1
 10
0.0
 20
0.0
  0
ENDBLK
  0
BLOCK
  2
9NEW00
 10
0.0
 20
0.0
 70
0
  0
LINE
  8
2D_MITTELLINIEN
  6
CENTERLINE
 62
1
 10
2.4886608E+002
 20
3.3824231E+001
 11
2.4885231E+002
 21
1.9425157E+001
  0
LINE
  8
2D_MITTELLINIEN
  6
CENTERLINE
 62
1
 10
2.5410429E+002
 20
2.6749985E+001
 11
2.4385429E+002
 21
2.6749985E+001
  0
CIRCLE
  8
2D_SICHTBARE_KANTEN
  6
CONTINUOUS
 62
1
 10
2.4885931E+002
 20
2.6749985E+001
 40
3.0
  0
LINE
  8
2D_SICHTBARE_KANTEN
  6
CONTINUOUS
 62
40
 10
4.9386596E+002
 20
4.6749954E+001
 11
-3.2914567E+002
 21
4.6749954E+001
  0
LINE
  8
2D_SICHTBARE_KANTEN
  6
CONTINUOUS
 62
40
 10
4.938522E+002
 20
1.6749954E+001
 11
-3.2914568E+002
 21
1.6749954E+001
  0
LINE
  8
2D_MITTELLINIEN
  6
CENTERLINE
 62
1
 10
-1.7914568E+002
 20
1.9585068E+001
 11
-1.7914571E+002
 21
3.375174E+001
  0
LINE
  8
2D_MITTELLINIEN
  6
CENTERLINE
 62
1
 10
-1.7414568E+002
 20
2.6749985E+001
 11
-1.8439568E+002
 21
2.6749985E+001
  0
CIRCLE
  8
2D_SICHTBARE_KANTEN
  6
CONTINUOUS
 62
1
 10
-1.7914569E+002
 20
2.6749985E+001
 40
3.0
  0
LINE
  8
2D_MITTELLINIEN
  6
CENTERLINE
 62
1
 10
-2.9739937E+002
 20
3.1749985E+001
 11
-3.10961E+002
 21
3.1749985E+001
  0
LINE
  8
2D_MITTELLINIEN
  6
CENTERLINE
 62
1
 10
-3.041457E+002
 20
2.3881914E+001
 11
-3.0414573E+002
 21
3.9201545E+001
  0
CIRCLE
  8
2D_SICHTBARE_KANTEN
  6
CONTINUOUS
 62
1
 10
-3.0414572E+002
 20
3.1749985E+001
 40
5.0
  0
LINE
  8
2D_MITTELLINIEN
  6
CENTERLINE
 62
1
 10
2.785522E+002
 20
3.1749985E+001
 11
2.6694004E+002
 21
3.1749985E+001
  0
LINE
  8
2D_MITTELLINIEN
  6
CENTERLINE
 62
1
 10
2.7286939E+002
 20
3.7283134E+001
 11
2.7285863E+002
 21
2.6025306E+001
  0
CIRCLE
  8
2D_SICHTBARE_KANTEN
  6
CONTINUOUS
 62
1
 10
2.728641E+002
 20
3.1749985E+001
 40
4.0
  0
LINE
  8
2D_SICHTBARE_KANTEN
  6
CONTINUOUS
 62
40
 10
-3.2914567E+002
 20
1.6749954E+001
 11
-3.2914574E+002
 21
4.6749954E+001
  0
LINE
  8
2D_SICHTBARE_KANTEN
  6
CONTINUOUS
 62
40
 10
4.9387855E+002
 20
4.6749942E+001
 11
4.9384986E+002
 21
1.6749956E+001
  0
POINT
  8
Drafting_Hidden_Entities
  6
CONTINUOUS
 62
1
 10
0.0
 20
0.0
  0
ENDBLK
  0
BLOCK
  2
UU
 10
0.0
 20
0.0
 70
0
  0
TEXT
  8
2D_TEXT
  6
CONTINUOUS
 62
1
 10
-1.4380094E+001
 20
1.4994001
 40
1.8000001
  1
"Weitergabe sowie Vervielfältigung dieser Unterlage,
 41
6.7067308E-001
 50
9.0E+001
 11
-1.4380094E+001
 21
5.9940003E-001
 73
2
  0
TEXT
  8
2D_TEXT
  6
CONTINUOUS
 62
1
 10
-1.1380094E+001
 20
1.4994001
 40
1.8000001
  1
Verwertung und Mitteilung ihres Inhalts nicht gestattet,
 41
6.7098214E-001
 50
9.0E+001
 11
-1.1380094E+001
 21
5.9940003E-001
 73
2
  0
TEXT
  8
2D_TEXT
  6
CONTINUOUS
 62
1
 10
-8.3800941
 20
1.4994001
 40
1.8000001
  1
soweit nicht ausdrücklich zugestanden. Zuwiederhandlungen
 41
6.7105263E-001
 50
9.0E+001
 11
-8.3800941
 21
5.9940003E-001
 73
2
  0
TEXT
  8
2D_TEXT
  6
CONTINUOUS
 62
1
 10
-5.3800941
 20
1.4994001
 40
1.8000001
  1
verpflichten zu Schadenersatz. Alle Rechte für den Fall
 41
6.7090909E-001
 50
9.0E+001
 11
-5.3800941
 21
5.9940003E-001
 73
2
  0
TEXT
  8
2D_TEXT
  6
CONTINUOUS
 62
1
 10
-2.3800941
 20
1.4994001
 40
1.8000001
  1
der Patenterteilung oder Gebrauchsmuster-Eintragung vorbehalten."
 41
6.7153846E-001
 50
9.0E+001
 11
-2.3800941
 21
5.9940003E-001
 73
2
  0
POINT
  8
Drafting_Hidden_Entities
  6
CONTINUOUS
 62
1
 10
0.0
 20
0.0
  0
ENDBLK
  0
BLOCK
  2
I
 10
0.0
 20
0.0
 70
0
  0
LINE
  8
2D_SICHTBARE_KANTEN
  6
CONTINUOUS
 62
40
 10
-2.0150903E+001
 20
0.0
 11
-2.0150903E+001
 21
1.3534E+001
  0
LINE
  8
2D_SICHTBARE_KANTEN
  6
CONTINUOUS
 62
40
 10
-2.0150903E+001
 20
1.3534E+001
 11
-2.0150903E+001
 21
2.5497592E+002
  0
LINE
  8
2D_SICHTBARE_KANTEN
  6
CONTINUOUS
 62
40
 10
-2.0150903E+001
 20
2.5497592E+002
 11
-5.8515084E+002
 21
2.5497592E+002
  0
LINE
  8
2D_SICHTBARE_KANTEN
  6
CONTINUOUS
 62
40
 10
-5.8515084E+002
 20
2.5497592E+002
 11
-7.301505E+002
 21
2.5497592E+002
  0
LINE
  8
2D_SICHTBARE_KANTEN
  6
CONTINUOUS
 62
40
 10
-2.4150903E+001
 20
0.0
 11
-2.4150903E+001
 21
1.2992E+001
  0
LINE
  8
2D_SICHTBARE_KANTEN
  6
CONTINUOUS
 62
40
 10
-2.4150903E+001
 20
6.496
 11
-2.4150903E+001
 21
2.5097592E+002
  0
LINE
  8
2D_SICHTBARE_KANTEN
  6
CONTINUOUS
 62
40
 10
-2.4150903E+001
 20
2.5097592E+002
 11
-1.2900005E+002
 21
2.5097592E+002
  0
LINE
  8
2D_SICHTBARE_KANTEN
  6
CONTINUOUS
 62
40
 10
-5.6099994E+002
 20
2.5097592E+002
 11
-7.301505E+002
 21
2.5097592E+002
  0
LINE
  8
2D_MITTELLINIEN
  6
CENTERLINE
 62
1
 10
-7.301505E+002
 20
3.5849992E+002
 11
-7.301505E+002
 21
-1.5468E+001
  0
LINE
  8
2D_SICHTBARE_KANTEN
  6
CONTINUOUS
 62
40
 10
-2.0150903E+001
 20
2.5497592E+002
 11
6.4849097E+001
 21
3.3997592E+002
  0
LINE
  8
2D_SICHTBARE_KANTEN
  6
CONTINUOUS
 62
40
 10
6.4849097E+001
 20
0.0
 11
6.4849097E+001
 21
3.3997592E+002
  0
LINE
  8
2D_SICHTBARE_KANTEN
  6
CONTINUOUS
 62
40
 10
6.4849097E+001
 20
3.3997592E+002
 11
-7.301505E+002
 21
3.3997592E+002
  0
LINE
  8
2D_SICHTBARE_KANTEN
  6
CONTINUOUS
 62
40
 10
-5.2599999E+002
 20
2.5097592E+002
 11
-5.6099994E+002
 21
2.5097592E+002
  0
TEXT
  8
2D_TEXT
  6
CONTINUOUS
 62
1
 10
-4.8989901E+001
 20
1.6110695E+002
 40
7.0
  1
(45)
 41
8.0E-001
  0
DIMENSION
  8
2D_BEMASSUNG
  6
CONTINUOUS
 62
1
  2
*D543
  3
DSTYLE3
 10
-5.7801156E+002
 20
3.616019E+002
 11
-3.4946345E+002
 21
3.6810341E+002
 70
128
 13
-1.4999997E+002
 23
2.7197771E+002
 14
-5.7801175E+002
 24
2.720502E+002
 40
1.0E+001
 50
1.7999988E+002
1001
ACAD
1000
DSTYLE
1002
{
1070
173
1070
0
1070
5
1000
_AH13
1002
}
  0
DIMENSION
  8
2D_BEMASSUNG
  6
CONTINUOUS
 62
1
  2
*D544
  3
DSTYLE2
 10
-2.6699998E+002
 20
1.1729938E+002
 11
-1.8380689E+002
 21
1.2380138E+002
 70
128
 13
-1.07E+002
 23
1.7647313E+002
 14
-2.6699998E+002
 24
1.7647313E+002
 40
1.0E+001
 50
0.0
1001
ACAD
1000
DSTYLE
1002
{
1070
173
1070
0
1070
5
1000
_AH13
1002
}
  0
DIMENSION
  8
2D_BEMASSUNG
  6
CONTINUOUS
 62
1
  2
*D545
  3
DSTYLE2
 10
0.0
 20
1.1729938E+002
 11
-5.5799538E+001
 21
1.2380138E+002
 70
128
 13
-1.07E+002
 23
1.7647313E+002
 14
0.0
 24
9.700967E+001
 40
1.0E+001
 50
0.0
1001
ACAD
1000
DSTYLE
1002
{
1070
173
1070
0
1070
5
1000
_AH13
1002
}
  0
DIMENSION
  8
2D_BEMASSUNG
  6
CONTINUOUS
 62
1
  2
*D546
  3
DSTYLE2
 10
-1.0700006E+002
 20
1.4658206E+002
 11
-1.2775138E+002
 21
1.530841E+002
 70
128
 13
-1.5E+002
 23
2.5781104E+002
 14
-1.07E+002
 24
1.7647313E+002
 40
1.0E+001
 50
3.5999988E+002
1001
ACAD
1000
DSTYLE
1002
{
1070
173
1070
0
1070
5
1000
_AH13
1002
}
  0
DIMENSION
  8
2D_BEMASSUNG
  6
CONTINUOUS
 62
1
  1
49
  2
*D547
  3
DSTYLE2
 10
0.0
 20
1.455902E+002
 11
-3.2008629E+001
 21
1.520922E+002
 70
128
 13
-4.950005E+001
 23
1.7822592E+002
 14
0.0
 24
9.700967E+001
 40
1.0E+001
 50
0.0
1001
ACAD
1000
DSTYLE
1002
{
1070
173
1070
0
1070
5
1000
_AH13
1002
}
  0
DIMENSION
  8
2D_BEMASSUNG
  6
CONTINUOUS
 62
1
  2
*D548
  3
DSTYLE3
 10
-4.0823866E+001
 20
2.5497592E+002
 11
-4.7325866E+001
 21
2.7255751E+002
 70
128
 13
-5.5E+001
 23
2.3822597E+002
 14
-2.0150903E+001
 24
2.5497592E+002
 40
1.0E+001
 50
9.0E+001
1001
ACAD
1000
DSTYLE
1002
{
1070
173
1070
0
1070
5
1000
_AH13
1002
}
  0
LINE
  8
2D_SICHTBARE_KANTEN
  6
CONTINUOUS
 62
40
 10
-5.0650002E+002
 20
2.5497588E+002
 11
-5.0650002E+002
 21
2.5267592E+002
  0
LINE
  8
2D_SICHTBARE_KANTEN
  6
CONTINUOUS
 62
40
 10
-5.0650002E+002
 20
2.5267592E+002
 11
-5.2350002E+002
 21
2.5267592E+002
  0
LINE
  8
2D_SICHTBARE_KANTEN
  6
CONTINUOUS
 62
40
 10
-5.2350002E+002
 20
2.5267592E+002
 11
-5.2350002E+002
 21
2.5497588E+002
  0
LINE
  8
2D_SICHTBARE_KANTEN
  6
CONTINUOUS
 62
40
 10
-5.2102501E+002
 20
2.5277214E+002
 11
-5.2102501E+002
 21
2.5247591E+002
  0
LINE
  8
2D_SICHTBARE_KANTEN
  6
CONTINUOUS
 62
40
 10
-5.2102501E+002
 20
2.5247591E+002
 11
-5.0897499E+002
 21
2.5247591E+002
  0
LINE
  8
2D_SICHTBARE_KANTEN
  6
CONTINUOUS
 62
40
 10
-5.0897499E+002
 20
2.5247591E+002
 11
-5.0897499E+002
 21
2.5267592E+002
  0
LINE
  8
2D_SICHTBARE_KANTEN
  6
CONTINUOUS
 62
40
 10
-5.1002501E+002
 20
2.5247591E+002
 11
-5.1002501E+002
 21
2.5147591E+002
  0
LINE
  8
2D_SICHTBARE_KANTEN
  6
CONTINUOUS
 62
40
 10
-5.1997496E+002
 20
2.5247591E+002
 11
-5.1997496E+002
 21
2.5147591E+002
  0
LINE
  8
2D_SICHTBARE_KANTEN
  6
CONTINUOUS
 62
40
 10
-1.3500004E+002
 20
2.5147591E+002
 11
-1.3500004E+002
 21
2.5197591E+002
  0
ARC
  8
2D_SICHTBARE_KANTEN
  6
CONTINUOUS
 62
40
 10
-1.3550004E+002
 20
2.5197591E+002
 40
5.0000028E-001
 50
0.0
 51
9.0E+001
  0
LINE
  8
2D_SICHTBARE_KANTEN
  6
CONTINUOUS
 62
40
 10
-1.3550004E+002
 20
2.5247591E+002
 11
-1.4450004E+002
 21
2.5247591E+002
  0
ARC
  8
2D_SICHTBARE_KANTEN
  6
CONTINUOUS
 62
40
 10
-1.4450005E+002
 20
2.5197592E+002
 40
4.9998907E-001
 50
8.9998747E+001
 51
1.8000125E+002
  0
LINE
  8
2D_SICHTBARE_KANTEN
  6
CONTINUOUS
 62
40
 10
-1.4500004E+002
 20
2.5197591E+002
 11
-1.4500004E+002
 21
2.5147591E+002
  0
LINE
  8
2D_SICHTBARE_KANTEN
  6
CONTINUOUS
 62
40
 10
-1.2900005E+002
 20
2.3822592E+002
 11
-1.2900005E+002
 21
2.4647591E+002
  0
LINE
  8
2D_SICHTBARE_KANTEN
  6
CONTINUOUS
 62
40
 10
-1.2900005E+002
 20
2.4647591E+002
 11
-1.5100005E+002
 21
2.4647591E+002
  0
LINE
  8
2D_SICHTBARE_KANTEN
  6
CONTINUOUS
 62
40
 10
-1.5100005E+002
 20
2.4647591E+002
 11
-1.5100005E+002
 21
2.3822592E+002
  0
LINE
  8
2D_SICHTBARE_KANTEN
  6
CONTINUOUS
 62
40
 10
-5.2599999E+002
 20
2.4647591E+002
 11
-5.2599999E+002
 21
2.5147591E+002
  0
LINE
  8
2D_SICHTBARE_KANTEN
  6
CONTINUOUS
 62
40
 10
-5.2599999E+002
 20
2.5147591E+002
 11
-5.0813393E+002
 21
2.5147591E+002
  0
LINE
  8
2D_SICHTBARE_KANTEN
  6
CONTINUOUS
 62
40
 10
-5.0813393E+002
 20
2.5147591E+002
 11
-1.4590004E+002
 21
2.5147591E+002
  0
LINE
  8
2D_SICHTBARE_KANTEN
  6
CONTINUOUS
 62
40
 10
-1.4590004E+002
 20
2.5147591E+002
 11
-1.2900005E+002
 21
2.5147591E+002
  0
LINE
  8
2D_SICHTBARE_KANTEN
  6
CONTINUOUS
 62
40
 10
-1.2900005E+002
 20
2.5147591E+002
 11
-1.2900005E+002
 21
2.4647591E+002
  0
LINE
  8
2D_SICHTBARE_KANTEN
  6
CONTINUOUS
 62
40
 10
-1.2900005E+002
 20
2.4647591E+002
 11
-5.2599999E+002
 21
2.4647591E+002
  0
LINE
  8
2D_SICHTBARE_KANTEN
  6
CONTINUOUS
 62
40
 10
-5.08515E+002
 20
2.4647591E+002
 11
-5.08515E+002
 21
2.4597588E+002
  0
ARC
  8
2D_SICHTBARE_KANTEN
  6
CONTINUOUS
 62
40
 10
-5.09015E+002
 20
2.4597587E+002
 40
4.9999411E-001
 50
2.6999933E+002
 51
3.6000067E+002
  0
LINE
  8
2D_SICHTBARE_KANTEN
  6
CONTINUOUS
 62
40
 10
-5.09015E+002
 20
2.4547588E+002
 11
-5.2098497E+002
 21
2.4547588E+002
  0
ARC
  8
2D_SICHTBARE_KANTEN
  6
CONTINUOUS
 62
40
 10
-5.2098499E+002
 20
2.4597586E+002
 40
4.9998037E-001
 50
1.7999775E+002
 51
2.7000225E+002
  0
LINE
  8
2D_SICHTBARE_KANTEN
  6
CONTINUOUS
 62
40
 10
-5.2148497E+002
 20
2.4597588E+002
 11
-5.2148497E+002
 21
2.4647591E+002
  0
LINE
  8
2D_SICHTBARE_KANTEN
  6
CONTINUOUS
 62
40
 10
-5.2148497E+002
 20
2.4647591E+002
 11
-5.08515E+002
 21
2.4647591E+002
  0
LINE
  8
2D_SICHTBARE_KANTEN
  6
CONTINUOUS
 62
40
 10
-5.2186605E+002
 20
2.5147592E+002
 11
-5.1997497E+002
 21
2.5147592E+002
  0
LINE
  8
2D_SICHTBARE_KANTEN
  6
CONTINUOUS
 62
40
 10
-5.1002502E+002
 20
2.5147592E+002
 11
-5.0813394E+002
 21
2.5147592E+002
  0
LINE
  8
2D_MITTELLINIEN
  6
CENTERLINE
 62
1
 10
-1.4000005E+002
 20
2.5427202E+002
 11
-1.4000005E+002
 21
2.3093375E+002
  0
CIRCLE
  8
2D_SICHTBARE_KANTEN
  6
CONTINUOUS
 62
1
 10
-1.0700005E+002
 20
2.2697592E+002
 40
5.0
  0
CIRCLE
  8
2D_SICHTBARE_KANTEN
  6
CONTINUOUS
 62
1
 10
-2.1500004E+002
 20
2.1897592E+002
 40
5.0
  0
LINE
  8
2D_MITTELLINIEN
  6
CENTERLINE
 62
1
 10
-2.1500003E+002
 20
2.2614256E+002
 11
-2.1500003E+002
 21
2.1170706E+002
  0
LINE
  8
2D_MITTELLINIEN
  6
CENTERLINE
 62
1
 10
-2.2199256E+002
 20
2.1897592E+002
 11
-2.0775754E+002
 21
2.1897592E+002
  0
LINE
  8
2D_MITTELLINIEN
  6
CENTERLINE
 62
1
 10
-1.5900005E+002
 20
2.2614256E+002
 11
-1.5900005E+002
 21
2.1170706E+002
  0
LINE
  8
2D_MITTELLINIEN
  6
CENTERLINE
 62
1
 10
-1.6599257E+002
 20
2.1897592E+002
 11
-1.5175756E+002
 21
2.1897592E+002
  0
CIRCLE
  8
2D_SICHTBARE_KANTEN
  6
CONTINUOUS
 62
1
 10
-1.5900005E+002
 20
2.1897592E+002
 40
5.0
  0
CIRCLE
  8
2D_SICHTBARE_KANTEN
  6
CONTINUOUS
 62
1
 10
-2.6700003E+002
 20
1.8397592E+002
 40
5.0
  0
LINE
  8
99
  6
CONTINUOUS
 62
1
 10
-1.0700005E+002
 20
1.7647308E+002
 11
-1.0700005E+002
 21
2.3474982E+002
  0
LINE
  8
2D_MITTELLINIEN
  6
CENTERLINE
 62
1
 10
-1.0094103E+002
 20
2.2697592E+002
 11
-1.1460427E+002
 21
2.2697592E+002
  0
LINE
  8
2D_MITTELLINIEN
  6
CENTERLINE
 62
1
 10
-2.7305905E+002
 20
1.8397592E+002
 11
-2.5939581E+002
 21
1.8397592E+002
  0
LINE
  8
2D_MITTELLINIEN
  6
CENTERLINE
 62
1
 10
-2.6700002E+002
 20
1.7647308E+002
 11
-2.6700002E+002
 21
2.3446565E+002
  0
LINE
  8
2D_MITTELLINIEN
  6
CENTERLINE
 62
1
 10
-2.7305905E+002
 20
1.9997592E+002
 11
-2.5939581E+002
 21
1.9997592E+002
  0
LINE
  8
2D_MITTELLINIEN
  6
CENTERLINE
 62
1
 10
-2.7305905E+002
 20
2.1097592E+002
 11
-2.5939581E+002
 21
2.1097592E+002
  0
LINE
  8
2D_MITTELLINIEN
  6
CENTERLINE
 62
1
 10
-2.7305905E+002
 20
2.2697592E+002
 11
-2.5939581E+002
 21
2.2697592E+002
  0
LINE
  8
2D_MITTELLINIEN
  6
CENTERLINE
 62
1
 10
-1.0094103E+002
 20
1.8397592E+002
 11
-1.1460427E+002
 21
1.8397592E+002
  0
LINE
  8
2D_MITTELLINIEN
  6
CENTERLINE
 62
1
 10
-1.0094103E+002
 20
1.9997592E+002
 11
-1.1460427E+002
 21
1.9997592E+002
  0
LINE
  8
2D_MITTELLINIEN
  6
CENTERLINE
 62
1
 10
-1.0094103E+002
 20
2.1097592E+002
 11
-1.1460427E+002
 21
2.1097592E+002
  0
CIRCLE
  8
2D_SICHTBARE_KANTEN
  6
CONTINUOUS
 62
1
 10
-2.6700003E+002
 20
1.9997592E+002
 40
5.0
  0
CIRCLE
  8
2D_SICHTBARE_KANTEN
  6
CONTINUOUS
 62
1
 10
-2.6700003E+002
 20
2.1097592E+002
 40
5.0
  0
CIRCLE
  8
2D_SICHTBARE_KANTEN
  6
CONTINUOUS
 62
1
 10
-2.6700003E+002
 20
2.2697592E+002
 40
5.0
  0
CIRCLE
  8
2D_SICHTBARE_KANTEN
  6
CONTINUOUS
 62
1
 10
-1.0700005E+002
 20
1.8397592E+002
 40
5.0
  0
CIRCLE
  8
2D_SICHTBARE_KANTEN
  6
CONTINUOUS
 62
1
 10
-1.0700005E+002
 20
1.9997592E+002
 40
5.0
  0
CIRCLE
  8
2D_SICHTBARE_KANTEN
  6
CONTINUOUS
 62
1
 10
-1.0700005E+002
 20
2.1097592E+002
 40
5.0
  0
LINE
  8
2D_SICHTBARE_KANTEN
  6
CONTINUOUS
 62
40
 10
-6.000005E+001
 20
1.7822592E+002
 11
-5.950005E+001
 21
1.7822592E+002
  0
LINE
  8
2D_SICHTBARE_KANTEN
  6
CONTINUOUS
 62
40
 10
-5.950005E+001
 20
1.7822592E+002
 11
-4.950005E+001
 21
1.7822592E+002
  0
LINE
  8
2D_SICHTBARE_KANTEN
  6
CONTINUOUS
 62
40
 10
-4.950005E+001
 20
1.7822592E+002
 11
-4.950005E+001
 21
2.3822592E+002
  0
LINE
  8
2D_SICHTBARE_KANTEN
  6
CONTINUOUS
 62
40
 10
-4.950005E+001
 20
2.3822592E+002
 11
-5.950005E+001
 21
2.3822592E+002
  0
LINE
  8
2D_SICHTBARE_KANTEN
  6
CONTINUOUS
 62
40
 10
-5.950005E+001
 20
2.3822592E+002
 11
-6.000005E+001
 21
2.3822592E+002
  0
LINE
  8
2D_SICHTBARE_KANTEN
  6
CONTINUOUS
 62
40
 10
-6.000005E+001
 20
2.3822592E+002
 11
-3.1400002E+002
 21
2.3822592E+002
  0
LINE
  8
2D_SICHTBARE_KANTEN
  6
CONTINUOUS
 62
40
 10
-3.1400002E+002
 20
2.3822592E+002
 11
-3.1450002E+002
 21
2.3822592E+002
  0
LINE
  8
2D_SICHTBARE_KANTEN
  6
CONTINUOUS
 62
40
 10
-3.1450002E+002
 20
2.3822592E+002
 11
-3.2450002E+002
 21
2.3822592E+002
  0
LINE
  8
2D_SICHTBARE_KANTEN
  6
CONTINUOUS
 62
40
 10
-3.2450002E+002
 20
2.3822592E+002
 11
-3.2450002E+002
 21
1.7822592E+002
  0
LINE
  8
2D_SICHTBARE_KANTEN
  6
CONTINUOUS
 62
40
 10
-3.1450002E+002
 20
1.7822592E+002
 11
-3.1400002E+002
 21
1.7822592E+002
  0
LINE
  8
2D_SICHTBARE_KANTEN
  6
CONTINUOUS
 62
40
 10
-3.2450002E+002
 20
1.7822592E+002
 11
-6.000005E+001
 21
1.7822592E+002
  0
LINE
  8
2D_SICHTBARE_KANTEN
  6
CONTINUOUS
 62
40
 10
-3.1450002E+002
 20
1.7872592E+002
 11
-3.1450002E+002
 21
1.7822592E+002
  0
LINE
  8
2D_MITTELLINIEN
  6
CENTERLINE
 62
1
 10
-1.0700005E+002
 20
1.7647308E+002
 11
-1.0700005E+002
 21
2.0749847E+002
  0
LINE
  8
2D_MITTELLINIEN
  6
CENTERLINE
 62
1
 10
-1.0700005E+002
 20
2.0749847E+002
 11
-1.0700005E+002
 21
2.3118924E+002
  0
LINE
  8
2D_MITTELLINIEN
  6
CENTERLINE
 62
1
 10
-2.6700003E+002
 20
1.7647308E+002
 11
-2.6700003E+002
 21
2.0845801E+002
  0
LINE
  8
2D_MITTELLINIEN
  6
CENTERLINE
 62
1
 10
-2.6700003E+002
 20
2.0845801E+002
 11
-2.6700003E+002
 21
2.3173093E+002
  0
LINE
  8
2D_SICHTBARE_KANTEN
  6
CONTINUOUS
 62
40
 10
-1.3675005E+002
 20
2.4647592E+002
 11
-1.4325004E+002
 21
2.4647592E+002
  0
LINE
  8
2D_MITTELLINIEN
  6
CENTERLINE
 62
1
 10
-5.1499999E+002
 20
2.444333E+002
 11
-5.1499999E+002
 21
2.5817616E+002
  0
LINE
  8
2D_SICHTBARE_KANTEN
  6
CONTINUOUS
 62
40
 10
-1.3410005E+002
 20
2.4647592E+002
 11
-1.4590004E+002
 21
2.4647592E+002
  0
LINE
  8
2D_SICHTBARE_KANTEN
  6
CONTINUOUS
 62
40
 10
-5.2099999E+002
 20
2.4647591E+002
 11
-5.1997496E+002
 21
2.4647591E+002
  0
LINE
  8
2D_SICHTBARE_KANTEN
  6
CONTINUOUS
 62
40
 10
-5.1002501E+002
 20
2.4647591E+002
 11
-5.0899999E+002
 21
2.4647591E+002
  0
ARC
  8
2D_VERDECKTE_KANTEN
  6
HIDDEN
 62
1
 10
0.0
 20
2.7992E+001
 40
1.5001402E+001
 50
2.4000309E+002
 51
2.9999691E+002
  0
ARC
  8
2D_VERDECKTE_KANTEN
  6
HIDDEN
 62
1
 10
0.0
 20
8.201E+001
 40
1.499967E+001
 50
5.9999272E+001
 51
1.2000073E+002
  0
LINE
  8
2D_VERDECKTE_KANTEN
  6
HIDDEN
 62
1
 10
-7.5
 20
1.5E+001
 11
7.5
 21
1.5E+001
  0
LINE
  8
2D_VERDECKTE_KANTEN
  6
HIDDEN
 62
1
 10
7.5
 20
1.5E+001
 11
7.5
 21
5.5E+001
  0
LINE
  8
2D_VERDECKTE_KANTEN
  6
HIDDEN
 62
1
 10
7.5
 20
5.5E+001
 11
-7.5
 21
5.5E+001
  0
LINE
  8
2D_VERDECKTE_KANTEN
  6
HIDDEN
 62
1
 10
-7.5
 20
5.5E+001
 11
-7.5
 21
1.5E+001
  0
LINE
  8
2D_VERDECKTE_KANTEN
  6
HIDDEN
 62
1
 10
-7.5
 20
5.5E+001
 11
7.5
 21
5.5E+001
  0
LINE
  8
2D_VERDECKTE_KANTEN
  6
HIDDEN
 62
1
 10
7.5
 20
5.5E+001
 11
7.5
 21
9.5E+001
  0
LINE
  8
2D_VERDECKTE_KANTEN
  6
HIDDEN
 62
1
 10
7.5
 20
9.5E+001
 11
-7.5
 21
9.5E+001
  0
LINE
  8
2D_VERDECKTE_KANTEN
  6
HIDDEN
 62
1
 10
-7.5
 20
9.5E+001
 11
-7.5
 21
5.5E+001
  0
LINE
  8
2D_MITTELLINIEN
  6
CENTERLINE
 62
1
 10
0.0
 20
5.866
 11
0.0
 21
1.02166E+002
  0
LINE
  8
2D_MITTELLINIEN
  6
CENTERLINE
 62
1
 10
-7.402065E+002
 20
0.0
 11
6.9489717E+001
 21
0.0
  0
POINT
  8
Drafting_Hidden_Entities
  6
CONTINUOUS
 62
1
 10
0.0
 20
0.0
  0
ENDBLK
  0
BLOCK
  2
*TX68
  3
*TX
 10
0.0
 20
0.0
 70
65
  0
TEXT
  8
2D_TEXT
  6
CONTINUOUS
 62
40
 10
6.46875
 20
5.0
 40
1.0E+001
  1
  
 41
6.46875E-001
 72
1
 11
0.0
 21
0.0
 73
2
  0
TEXT
  8
2D_TEXT
  6
CONTINUOUS
 62
40
 10
2.5875E+001
 20
-1.0E+001
 40
1.0E+001
  1
04.03.04
 41
6.46875E-001
 72
1
 11
0.0
 21
-1.5E+001
 73
2
  0
ENDBLK
  0
BLOCK
  2
*TX69
  3
*TX
 10
0.0
 20
0.0
 70
65
  0
TEXT
  8
2D_TEXT
  6
CONTINUOUS
 62
40
 10
6.46875
 20
5.0
 40
1.0E+001
  1
  
 41
6.46875E-001
 72
1
 11
0.0
 21
0.0
 73
2
  0
TEXT
  8
2D_TEXT
  6
CONTINUOUS
 62
40
 10
2.5875E+001
 20
-1.0E+001
 40
1.0E+001
  1
13.12.05
 41
6.46875E-001
 72
1
 11
0.0
 21
-1.5E+001
 73
2
  0
ENDBLK
  0
BLOCK
  2
_AH1
 70
0
 10
0.0
 20
0.0
  3
_AH1
  0
LINE
  8
0
  6
CONTINUOUS
 62
0
 10
-1.0
 20
1.66667E-001
 11
0.0
 21
0.0
  0
LINE
  8
0
  6
CONTINUOUS
 62
0
 10
0.0
 20
0.0
 11
-1.0
 21
-1.66667E-001
  0
LINE
  8
0
  6
CONTINUOUS
 62
0
 10
-1.0
 20
1.66667E-001
 11
-1.0
 21
-1.66667E-001
  0
LINE
  8
0
  6
CONTINUOUS
 62
0
 10
0.0
 20
0.0
 11
-1.0
 21
0.0
  0
ENDBLK
  0
BLOCK
  2
_AH2
 70
0
 10
0.0
 20
0.0
  3
_AH2
  0
LINE
  8
0
  6
CONTINUOUS
 62
0
 10
-1.0
 20
1.66667E-001
 11
0.0
 21
0.0
  0
LINE
  8
0
  6
CONTINUOUS
 62
0
 10
0.0
 20
0.0
 11
-1.0
 21
-1.66667E-001
  0
LINE
  8
0
  6
CONTINUOUS
 62
0
 10
0.0
 20
0.0
 11
-1.0
 21
0.0
  0
ENDBLK
  0
BLOCK
  2
*D123
  3
*D
 10
0.0
 20
0.0
 70
65
  0
LINE
  8
2D_BEMASSUNG
  6
CONTINUOUS
 62
4
 10
-1.5997808E+001
 20
5.9495E+001
 11
-1.5997808E+001
 21
5.8624493E+001
  0
LINE
  8
2D_BEMASSUNG
  6
CONTINUOUS
 62
4
 10
5.5001992E+001
 20
6.3342E+001
 11
5.5001992E+001
 21
5.8624493E+001
  0
LINE
  8
2D_BEMASSUNG
  6
CONTINUOUS
 62
4
 10
-1.5997808E+001
 20
5.7624493E+001
 11
1.9579966E+001
 21
5.7624493E+001
  0
LINE
  8
2D_BEMASSUNG
  6
CONTINUOUS
 62
4
 10
5.5001992E+001
 20
5.7624493E+001
 11
1.9579966E+001
 21
5.7624493E+001
  0
INSERT
  2
_AH13
  8
2D_BEMASSUNG
 62
4
 10
-3.1995617E+001
 20
1.1524899E+002
 41
7.0
 42
7.0
 43
7.0
 50
1.8E+002
  0
INSERT
  2
_AH13
  8
2D_BEMASSUNG
 62
4
 10
1.1000398E+002
 20
1.1524899E+002
 41
7.0
 42
7.0
 43
7.0
 50
3.6E+002
  0
TEXT
  8
2D_BEMASSUNG
  6
CONTINUOUS
 62
4
 10
1.6079966E+001
 20
5.8790993E+001
 40
3.5
  1
142
 41
6.6666667E-001
  0
ENDBLK
  0
BLOCK
  2
*D124
  3
*D
 10
0.0
 20
0.0
 70
65
  0
LINE
  8
2D_BEMASSUNG
  6
CONTINUOUS
 62
4
 10
2.0277092E+001
 20
1.075E+002
 11
3.5820302
 21
1.075E+002
  0
LINE
  8
2D_BEMASSUNG
  6
CONTINUOUS
 62
4
 10
2.5252192E+001
 20
1.05625E+002
 11
3.5820302
 21
1.05625E+002
  0
LINE
  8
2D_BEMASSUNG
  6
CONTINUOUS
 62
4
 10
4.5820302
 20
1.135E+002
 11
4.5820302
 21
1.075E+002
  0
LINE
  8
2D_BEMASSUNG
  6
CONTINUOUS
 62
4
 10
4.5820302
 20
1.05625E+002
 11
4.5820302
 21
8.9358577E+001
  0
INSERT
  2
_AH13
  8
2D_BEMASSUNG
 62
4
 10
9.1640604
 20
2.15E+002
 41
7.0
 42
7.0
 43
7.0
 50
6.3E+002
  0
INSERT
  2
_AH13
  8
2D_BEMASSUNG
 62
4
 10
9.1640604
 20
2.1125E+002
 41
7.0
 42
7.0
 43
7.0
 50
8.1E+002
  0
TEXT
  8
2D_BEMASSUNG
  6
CONTINUOUS
 62
4
 10
3.4155302
 20
9.0858577E+001
 40
3.5
  1
4
 41
6.6666667E-001
 50
9.0E+001
  0
ENDBLK
  0
BLOCK
  2
*D131
  3
*D
 10
0.0
 20
0.0
 70
65
  0
LINE
  8
2D_BEMASSUNG
  6
CONTINUOUS
 62
4
 10
1.7576992E+001
 20
1.075E+002
 11
3.5810302
 21
1.075E+002
  0
LINE
  8
2D_BEMASSUNG
  6
CONTINUOUS
 62
4
 10
2.5252192E+001
 20
1.2899998E+002
 11
3.5810302
 21
1.2899998E+002
  0
LINE
  8
2D_BEMASSUNG
  6
CONTINUOUS
 62
4
 10
4.5810302
 20
1.075E+002
 11
4.5810302
 21
1.193608E+002
  0
LINE
  8
2D_BEMASSUNG
  6
CONTINUOUS
 62
4
 10
4.5810302
 20
1.2899998E+002
 11
4.5810302
 21
1.193608E+002
  0
INSERT
  2
_AH13
  8
2D_BEMASSUNG
 62
4
 10
9.1620604
 20
2.15E+002
 41
7.0
 42
7.0
 43
7.0
 50
2.7E+002
  0
INSERT
  2
_AH13
  8
2D_BEMASSUNG
 62
4
 10
9.1620604
 20
2.5799995E+002
 41
7.0
 42
7.0
 43
7.0
 50
4.5E+002
  0
TEXT
  8
2D_BEMASSUNG
  6
CONTINUOUS
 62
4
 10
3.4145302
 20
1.1702747E+002
 40
3.5
  1
43
 41
6.6666667E-001
 50
9.0E+001
  0
ENDBLK
  0
BLOCK
  2
*D220
  3
*D
 10
0.0
 20
0.0
 70
65
  0
LINE
  8
2D_BEMASSUNG
  6
CONTINUOUS
 62
1
 10
-1.5997808E+001
 20
4.8505E+001
 11
-1.5997808E+001
 21
6.9966761E+001
  0
LINE
  8
2D_BEMASSUNG
  6
CONTINUOUS
 62
1
 10
2.6252192E+001
 20
7.5625E+001
 11
2.6252192E+001
 21
6.6966761E+001
  0
LINE
  8
2D_BEMASSUNG
  6
CONTINUOUS
 62
1
 10
-1.5997808E+001
 20
6.8466761E+001
 11
4.3104617E-001
 21
6.8466761E+001
  0
LINE
  8
2D_BEMASSUNG
  6
CONTINUOUS
 62
1
 10
2.6252192E+001
 20
6.8466761E+001
 11
4.3104617E-001
 21
6.8466761E+001
  0
INSERT
  2
_AH13
  8
2D_BEMASSUNG
 62
1
 10
-3.1995617E+001
 20
1.3693352E+002
 41
8.0
 42
8.0
 43
8.0
 50
1.8E+002
  0
INSERT
  2
_AH13
  8
2D_BEMASSUNG
 62
1
 10
5.2504383E+001
 20
1.3693352E+002
 41
8.0
 42
8.0
 43
8.0
 50
3.6E+002
  0
TEXT
  8
2D_BEMASSUNG
  6
CONTINUOUS
 62
1
 10
-2.3689538
 20
6.9967761E+001
 40
3.5
  1
84
 41
8.0E-001
  0
ENDBLK
  0
BLOCK
  2
*D222
  3
*D
 10
0.0
 20
0.0
 70
65
  0
LINE
  8
2D_BEMASSUNG
  6
CONTINUOUS
 62
1
 10
5.6377192E+001
 20
1.1899999E+002
 11
1.51077E+001
 21
1.1899999E+002
  0
LINE
  8
2D_BEMASSUNG
  6
CONTINUOUS
 62
1
 10
3.0094532E+001
 20
1.2474999E+002
 11
1.51077E+001
 21
1.2474999E+002
  0
LINE
  8
2D_BEMASSUNG
  6
CONTINUOUS
 62
1
 10
1.66077E+001
 20
1.1099999E+002
 11
1.66077E+001
 21
1.1899999E+002
  0
LINE
  8
2D_BEMASSUNG
  6
CONTINUOUS
 62
1
 10
1.66077E+001
 20
1.3274999E+002
 11
1.66077E+001
 21
1.1899999E+002
  0
INSERT
  2
_AH13
  8
2D_BEMASSUNG
 62
1
 10
3.32154E+001
 20
2.3799998E+002
 41
8.0
 42
8.0
 43
8.0
 50
4.5E+002
  0
INSERT
  2
_AH13
  8
2D_BEMASSUNG
 62
1
 10
3.32154E+001
 20
2.4949998E+002
 41
8.0
 42
8.0
 43
8.0
 50
6.3E+002
  0
TEXT
  8
2D_BEMASSUNG
  6
CONTINUOUS
 62
1
 10
1.51067E+001
 20
1.1544967E+002
 40
3.5
  1
11,5
 41
8.0E-001
 50
9.0E+001
  0
ENDBLK
  0
BLOCK
  2
*D226
  3
*D
 10
0.0
 20
0.0
 70
65
  0
LINE
  8
2D_BEMASSUNG
  6
CONTINUOUS
 62
1
 10
1.3500218E+002
 20
7.4748581E+001
 11
1.3500218E+002
 21
5.6396206E+001
  0
LINE
  8
2D_BEMASSUNG
  6
CONTINUOUS
 62
1
 10
5.5002192E+001
 20
7.4748581E+001
 11
5.5002192E+001
 21
5.6396206E+001
  0
LINE
  8
2D_BEMASSUNG
  6
CONTINUOUS
 62
1
 10
1.3500218E+002
 20
5.7896206E+001
 11
9.559102E+001
 21
5.7896206E+001
  0
LINE
  8
2D_BEMASSUNG
  6
CONTINUOUS
 62
1
 10
5.5002192E+001
 20
5.7896206E+001
 11
9.559102E+001
 21
5.7896206E+001
  0
INSERT
  2
_AH13
  8
2D_BEMASSUNG
 62
1
 10
2.7000436E+002
 20
1.1579241E+002
 41
8.0
 42
8.0
 43
8.0
 50
3.6E+002
  0
INSERT
  2
_AH13
  8
2D_BEMASSUNG
 62
1
 10
1.1000438E+002
 20
1.1579241E+002
 41
8.0
 42
8.0
 43
8.0
 50
5.4E+002
  0
TEXT
  8
2D_BEMASSUNG
  6
CONTINUOUS
 62
1
 10
9.139102E+001
 20
5.9397205E+001
 40
3.5
  1
160
 41
8.0E-001
 50
3.6E+002
  0
ENDBLK
  0
BLOCK
  2
*D227
  3
*D
 10
0.0
 20
0.0
 70
65
  0
LINE
  8
2D_BEMASSUNG
  6
CONTINUOUS
 62
1
 10
5.9002192E+001
 20
1.1541753E+002
 11
5.9002301E+001
 21
6.4630894E+001
  0
LINE
  8
2D_BEMASSUNG
  6
CONTINUOUS
 62
1
 10
5.5002192E+001
 20
1.0388695E+002
 11
5.5002276E+001
 21
6.4630885E+001
  0
LINE
  8
2D_BEMASSUNG
  6
CONTINUOUS
 62
1
 10
5.9002298E+001
 20
6.6130894E+001
 11
7.1632102E+001
 21
6.6130921E+001
  0
LINE
  8
2D_BEMASSUNG
  6
CONTINUOUS
 62
1
 10
4.7002273E+001
 20
6.6130868E+001
 11
5.9002298E+001
 21
6.6130894E+001
  0
INSERT
  2
_AH13
  8
2D_BEMASSUNG
 62
1
 10
1.180046E+002
 20
1.3226179E+002
 41
8.0
 42
8.0
 43
8.0
 50
5.4000012E+002
  0
INSERT
  2
_AH13
  8
2D_BEMASSUNG
 62
1
 10
1.1000455E+002
 20
1.3226177E+002
 41
8.0
 42
8.0
 43
8.0
 50
7.2000012E+002
  0
TEXT
  8
2D_BEMASSUNG
  6
CONTINUOUS
 62
1
 10
6.7332098E+001
 20
6.7631911E+001
 40
3.5
  1
8
 41
8.0E-001
 50
1.234254E-004
  0
ENDBLK
  0
BLOCK
  2
*D256
  3
*D
 10
0.0
 20
0.0
 70
65
  0
LINE
  8
2D_BEMASSUNG
  6
CONTINUOUS
 62
4
 10
-1.5997808E+001
 20
4.9505E+001
 11
-1.5997808E+001
 21
1.6232767E+002
  0
LINE
  8
2D_BEMASSUNG
  6
CONTINUOUS
 62
4
 10
3.3502162E+001
 20
1.2999998E+002
 11
3.3502162E+001
 21
1.6232767E+002
  0
LINE
  8
2D_BEMASSUNG
  6
CONTINUOUS
 62
4
 10
-1.5997808E+001
 20
1.6132767E+002
 11
9.9403362
 21
1.6132767E+002
  0
LINE
  8
2D_BEMASSUNG
  6
CONTINUOUS
 62
4
 10
3.3502162E+001
 20
1.6132767E+002
 11
9.9403362
 21
1.6132767E+002
  0
INSERT
  2
_AH13
  8
2D_BEMASSUNG
 62
4
 10
-3.1995617E+001
 20
3.2265534E+002
 41
7.0
 42
7.0
 43
7.0
 50
1.8E+002
  0
INSERT
  2
_AH13
  8
2D_BEMASSUNG
 62
4
 10
6.7004325E+001
 20
3.2265534E+002
 41
7.0
 42
7.0
 43
7.0
 50
3.6E+002
  0
TEXT
  8
2D_BEMASSUNG
  6
CONTINUOUS
 62
4
 10
7.6070028
 20
1.6249417E+002
 40
3.5
  1
99
 41
6.6666667E-001
  0
ENDBLK
  0
BLOCK
  2
*D257
  3
*D
 10
0.0
 20
0.0
 70
65
  0
LINE
  8
2D_BEMASSUNG
  6
CONTINUOUS
 62
4
 10
2.7300699E+002
 20
1.22421E+002
 11
2.7300699E+002
 21
1.6174627E+002
  0
LINE
  8
2D_BEMASSUNG
  6
CONTINUOUS
 62
4
 10
5.9001992E+001
 20
1.22625E+002
 11
5.9001992E+001
 21
1.6174627E+002
  0
LINE
  8
2D_BEMASSUNG
  6
CONTINUOUS
 62
4
 10
2.7300699E+002
 20
1.6074627E+002
 11
1.7004805E+002
 21
1.6074627E+002
  0
LINE
  8
2D_BEMASSUNG
  6
CONTINUOUS
 62
4
 10
5.9001992E+001
 20
1.6074627E+002
 11
1.7004805E+002
 21
1.6074627E+002
  0
INSERT
  2
_AH13
  8
2D_BEMASSUNG
 62
4
 10
5.4601398E+002
 20
3.2149254E+002
 41
7.0
 42
7.0
 43
7.0
 50
3.6E+002
  0
INSERT
  2
_AH13
  8
2D_BEMASSUNG
 62
4
 10
1.1800398E+002
 20
3.2149254E+002
 41
7.0
 42
7.0
 43
7.0
 50
5.4E+002
  0
TEXT
  8
2D_BEMASSUNG
  6
CONTINUOUS
 62
4
 10
1.6654805E+002
 20
1.6191277E+002
 40
3.5
  1
428
 41
6.6666667E-001
 50
3.6E+002
  0
ENDBLK
  0
BLOCK
  2
*D543
  3
*D
 10
0.0
 20
0.0
 70
65
  0
LINE
  8
2D_BEMASSUNG
  6
CONTINUOUS
 62
1
 10
-7.4999985E+001
 20
1.3598885E+002
 11
-7.4999885E+001
 21
1.8230049E+002
  0
LINE
  8
2D_BEMASSUNG
  6
CONTINUOUS
 62
1
 10
-2.8900588E+002
 20
1.360251E+002
 11
-2.8900578E+002
 21
1.8230095E+002
  0
LINE
  8
2D_BEMASSUNG
  6
CONTINUOUS
 62
1
 10
-7.4999888E+001
 20
1.8080049E+002
 11
-1.7473173E+002
 21
1.8080071E+002
  0
LINE
  8
2D_BEMASSUNG
  6
CONTINUOUS
 62
1
 10
-2.8900578E+002
 20
1.8080095E+002
 11
-1.7473173E+002
 21
1.8080071E+002
  0
INSERT
  2
_AH13
  8
2D_BEMASSUNG
 62
1
 10
-1.4999978E+002
 20
3.6160098E+002
 41
8.0
 42
8.0
 43
8.0
 50
3.5999988E+002
  0
INSERT
  2
_AH13
  8
2D_BEMASSUNG
 62
1
 10
-5.7801156E+002
 20
3.616019E+002
 41
8.0
 42
8.0
 43
8.0
 50
5.3999988E+002
  0
TEXT
  8
2D_BEMASSUNG
  6
CONTINUOUS
 62
1
 10
-1.7893173E+002
 20
1.8230171E+002
 40
3.5
  1
428
 41
8.0E-001
 50
3.5999988E+002
  0
ENDBLK
  0
BLOCK
  2
*D544
  3
*D
 10
0.0
 20
0.0
 70
65
  0
LINE
  8
2D_BEMASSUNG
  6
CONTINUOUS
 62
1
 10
-5.35E+001
 20
8.8236565E+001
 11
-5.35E+001
 21
5.7149689E+001
  0
LINE
  8
2D_BEMASSUNG
  6
CONTINUOUS
 62
1
 10
-1.3349999E+002
 20
8.8236565E+001
 11
-1.3349999E+002
 21
5.7149689E+001
  0
LINE
  8
2D_BEMASSUNG
  6
CONTINUOUS
 62
1
 10
-5.35E+001
 20
5.8649689E+001
 11
-9.1903443E+001
 21
5.8649689E+001
  0
LINE
  8
2D_BEMASSUNG
  6
CONTINUOUS
 62
1
 10
-1.3349999E+002
 20
5.8649689E+001
 11
-9.1903443E+001
 21
5.8649689E+001
  0
INSERT
  2
_AH13
  8
2D_BEMASSUNG
 62
1
 10
-1.07E+002
 20
1.1729938E+002
 41
8.0
 42
8.0
 43
8.0
 50
3.6E+002
  0
INSERT
  2
_AH13
  8
2D_BEMASSUNG
 62
1
 10
-2.6699998E+002
 20
1.1729938E+002
 41
8.0
 42
8.0
 43
8.0
 50
5.4E+002
  0
TEXT
  8
2D_BEMASSUNG
  6
CONTINUOUS
 62
1
 10
-9.6103443E+001
 20
6.0150689E+001
 40
3.5
  1
160
 41
8.0E-001
 50
3.6E+002
  0
ENDBLK
  0
BLOCK
  2
*D545
  3
*D
 10
0.0
 20
0.0
 70
65
  0
LINE
  8
2D_BEMASSUNG
  6
CONTINUOUS
 62
1
 10
-5.35E+001
 20
8.8236565E+001
 11
-5.35E+001
 21
5.7149689E+001
  0
LINE
  8
2D_BEMASSUNG
  6
CONTINUOUS
 62
1
 10
0.0
 20
4.8504835E+001
 11
0.0
 21
6.0149689E+001
  0
LINE
  8
2D_BEMASSUNG
  6
CONTINUOUS
 62
1
 10
-5.35E+001
 20
5.8649689E+001
 11
-2.7899769E+001
 21
5.8649689E+001
  0
LINE
  8
2D_BEMASSUNG
  6
CONTINUOUS
 62
1
 10
0.0
 20
5.8649689E+001
 11
-2.7899769E+001
 21
5.8649689E+001
  0
INSERT
  2
_AH13
  8
2D_BEMASSUNG
 62
1
 10
-1.07E+002
 20
1.1729938E+002
 41
8.0
 42
8.0
 43
8.0
 50
1.8E+002
  0
INSERT
  2
_AH13
  8
2D_BEMASSUNG
 62
1
 10
0.0
 20
1.1729938E+002
 41
8.0
 42
8.0
 43
8.0
 50
3.6E+002
  0
TEXT
  8
2D_BEMASSUNG
  6
CONTINUOUS
 62
1
 10
-3.2099769E+001
 20
6.0150689E+001
 40
3.5
  1
107
 41
8.0E-001
  0
ENDBLK
  0
BLOCK
  2
*D546
  3
*D
 10
0.0
 20
0.0
 70
65
  0
LINE
  8
2D_BEMASSUNG
  6
CONTINUOUS
 62
1
 10
-7.5E+001
 20
1.2890552E+002
 11
-7.5000123E+001
 21
7.1791076E+001
  0
LINE
  8
2D_BEMASSUNG
  6
CONTINUOUS
 62
1
 10
-5.35E+001
 20
8.8236565E+001
 11
-5.3500035E+001
 21
7.179103E+001
  0
LINE
  8
2D_BEMASSUNG
  6
CONTINUOUS
 62
1
 10
-7.500012E+001
 20
7.3291076E+001
 11
-6.3875698E+001
 21
7.3291052E+001
  0
LINE
  8
2D_BEMASSUNG
  6
CONTINUOUS
 62
1
 10
-5.3500032E+001
 20
7.329103E+001
 11
-6.3875698E+001
 21
7.3291052E+001
  0
INSERT
  2
_AH13
  8
2D_BEMASSUNG
 62
1
 10
-1.5000024E+002
 20
1.4658215E+002
 41
8.0
 42
8.0
 43
8.0
 50
5.3999988E+002
  0
INSERT
  2
_AH13
  8
2D_BEMASSUNG
 62
1
 10
-1.0700006E+002
 20
1.4658206E+002
 41
8.0
 42
8.0
 43
8.0
 50
7.1999988E+002
  0
TEXT
  8
2D_BEMASSUNG
  6
CONTINUOUS
 62
1
 10
-6.6675694E+001
 20
7.4792058E+001
 40
3.5
  1
43
 41
8.0E-001
 50
3.5999988E+002
  0
ENDBLK
  0
BLOCK
  2
*D547
  3
*D
 10
0.0
 20
0.0
 70
65
  0
LINE
  8
2D_BEMASSUNG
  6
CONTINUOUS
 62
1
 10
-2.4750025E+001
 20
8.9112961E+001
 11
-2.4750025E+001
 21
7.1295102E+001
  0
LINE
  8
2D_BEMASSUNG
  6
CONTINUOUS
 62
1
 10
0.0
 20
4.8504835E+001
 11
0.0
 21
7.4295102E+001
  0
LINE
  8
2D_BEMASSUNG
  6
CONTINUOUS
 62
1
 10
-2.4750025E+001
 20
7.2795102E+001
 11
-1.6004315E+001
 21
7.2795102E+001
  0
LINE
  8
2D_BEMASSUNG
  6
CONTINUOUS
 62
1
 10
0.0
 20
7.2795102E+001
 11
-1.6004315E+001
 21
7.2795102E+001
  0
INSERT
  2
_AH13
  8
2D_BEMASSUNG
 62
1
 10
-4.950005E+001
 20
1.455902E+002
 41
8.0
 42
8.0
 43
8.0
 50
1.8E+002
  0
INSERT
  2
_AH13
  8
2D_BEMASSUNG
 62
1
 10
0.0
 20
1.455902E+002
 41
8.0
 42
8.0
 43
8.0
 50
3.6E+002
  0
TEXT
  8
2D_BEMASSUNG
  6
CONTINUOUS
 62
1
 10
-1.8804315E+001
 20
7.4296102E+001
 40
3.5
  1
49
 41
8.0E-001
  0
ENDBLK
  0
BLOCK
  2
*D548
  3
*D
 10
0.0
 20
0.0
 70
65
  0
LINE
  8
2D_BEMASSUNG
  6
CONTINUOUS
 62
1
 10
-2.75E+001
 20
1.1911298E+002
 11
-1.8911933E+001
 21
1.1911298E+002
  0
LINE
  8
2D_BEMASSUNG
  6
CONTINUOUS
 62
1
 10
-1.0075452E+001
 20
1.2748796E+002
 11
-2.1911933E+001
 21
1.2748796E+002
  0
LINE
  8
2D_BEMASSUNG
  6
CONTINUOUS
 62
1
 10
-2.0411933E+001
 20
1.1111298E+002
 11
-2.0411933E+001
 21
1.2748796E+002
  0
LINE
  8
2D_BEMASSUNG
  6
CONTINUOUS
 62
1
 10
-2.0411933E+001
 20
1.2748796E+002
 11
-2.0411933E+001
 21
1.4057875E+002
  0
INSERT
  2
_AH13
  8
2D_BEMASSUNG
 62
1
 10
-4.0823866E+001
 20
2.3822597E+002
 41
8.0
 42
8.0
 43
8.0
 50
4.5E+002
  0
INSERT
  2
_AH13
  8
2D_BEMASSUNG
 62
1
 10
-4.0823866E+001
 20
2.5497592E+002
 41
8.0
 42
8.0
 43
8.0
 50
6.3E+002
  0
TEXT
  8
2D_BEMASSUNG
  6
CONTINUOUS
 62
1
 10
-2.1912933E+001
 20
1.3347875E+002
 40
3.5
  1
17
 41
8.0E-001
 50
9.0E+001
  0
ENDBLK
  0
BLOCK
  2
*D653
  3
*D
 10
0.0
 20
0.0
 70
65
  0
LINE
  8
2D_BEMASSUNG
  6
CONTINUOUS
 62
1
 10
4.4852106E+002
 20
2.9013843E+002
 11
4.4852116E+002
 21
3.3645007E+002
  0
LINE
  8
2D_BEMASSUNG
  6
CONTINUOUS
 62
1
 10
2.3451517E+002
 20
2.9017468E+002
 11
2.3451527E+002
 21
3.3645053E+002
  0
LINE
  8
2D_BEMASSUNG
  6
CONTINUOUS
 62
1
 10
4.4852116E+002
 20
3.3495007E+002
 11
3.4878931E+002
 21
3.3495029E+002
  0
LINE
  8
2D_BEMASSUNG
  6
CONTINUOUS
 62
1
 10
2.3451527E+002
 20
3.3495053E+002
 11
3.4878931E+002
 21
3.3495029E+002
  0
INSERT
  2
_AH13
  8
2D_BEMASSUNG
 62
1
 10
4.4852116E+002
 20
3.3495007E+002
 41
4.0
 42
4.0
 43
4.0
 50
3.5999988E+002
  0
INSERT
  2
_AH13
  8
2D_BEMASSUNG
 62
1
 10
2.3451527E+002
 20
3.3495053E+002
 41
4.0
 42
4.0
 43
4.0
 50
5.3999988E+002
  0
TEXT
  8
2D_BEMASSUNG
  6
CONTINUOUS
 62
1
 10
3.4458932E+002
 20
3.3645129E+002
 40
3.5
  1
428
 41
8.0E-001
 50
3.5999988E+002
  0
ENDBLK
  0
BLOCK
  2
*D654
  3
*D
 10
0.0
 20
0.0
 70
65
  0
LINE
  8
2D_BEMASSUNG
  6
CONTINUOUS
 62
1
 10
4.7002105E+002
 20
2.4238614E+002
 11
4.7002105E+002
 21
2.1129927E+002
  0
LINE
  8
2D_BEMASSUNG
  6
CONTINUOUS
 62
1
 10
3.9002106E+002
 20
2.4238614E+002
 11
3.9002106E+002
 21
2.1129927E+002
  0
LINE
  8
2D_BEMASSUNG
  6
CONTINUOUS
 62
1
 10
4.7002105E+002
 20
2.1279927E+002
 11
4.316176E+002
 21
2.1279927E+002
  0
LINE
  8
2D_BEMASSUNG
  6
CONTINUOUS
 62
1
 10
3.9002106E+002
 20
2.1279927E+002
 11
4.316176E+002
 21
2.1279927E+002
  0
INSERT
  2
_AH13
  8
2D_BEMASSUNG
 62
1
 10
4.7002105E+002
 20
2.1279927E+002
 41
4.0
 42
4.0
 43
4.0
 50
3.6E+002
  0
INSERT
  2
_AH13
  8
2D_BEMASSUNG
 62
1
 10
3.9002106E+002
 20
2.1279927E+002
 41
4.0
 42
4.0
 43
4.0
 50
5.4E+002
  0
TEXT
  8
2D_BEMASSUNG
  6
CONTINUOUS
 62
1
 10
4.274176E+002
 20
2.1430027E+002
 40
3.5
  1
160
 41
8.0E-001
 50
3.6E+002
  0
ENDBLK
  0
BLOCK
  2
*D655
  3
*D
 10
0.0
 20
0.0
 70
65
  0
LINE
  8
2D_BEMASSUNG
  6
CONTINUOUS
 62
1
 10
4.7002105E+002
 20
2.4238614E+002
 11
4.7002105E+002
 21
2.1129927E+002
  0
LINE
  8
2D_BEMASSUNG
  6
CONTINUOUS
 62
1
 10
5.2352105E+002
 20
2.0265441E+002
 11
5.2352105E+002
 21
2.1429927E+002
  0
LINE
  8
2D_BEMASSUNG
  6
CONTINUOUS
 62
1
 10
4.7002105E+002
 20
2.1279927E+002
 11
4.9562128E+002
 21
2.1279927E+002
  0
LINE
  8
2D_BEMASSUNG
  6
CONTINUOUS
 62
1
 10
5.2352105E+002
 20
2.1279927E+002
 11
4.9562128E+002
 21
2.1279927E+002
  0
INSERT
  2
_AH13
  8
2D_BEMASSUNG
 62
1
 10
4.7002105E+002
 20
2.1279927E+002
 41
4.0
 42
4.0
 43
4.0
 50
1.8E+002
  0
INSERT
  2
_AH13
  8
2D_BEMASSUNG
 62
1
 10
5.2352105E+002
 20
2.1279927E+002
 41
4.0
 42
4.0
 43
4.0
 50
3.6E+002
  0
TEXT
  8
2D_BEMASSUNG
  6
CONTINUOUS
 62
1
 10
4.9142128E+002
 20
2.1430027E+002
 40
3.5
  1
107
 41
8.0E-001
  0
ENDBLK
  0
BLOCK
  2
*D656
  3
*D
 10
0.0
 20
0.0
 70
65
  0
LINE
  8
2D_BEMASSUNG
  6
CONTINUOUS
 62
1
 10
4.4852105E+002
 20
2.830551E+002
 11
4.4852092E+002
 21
2.2594066E+002
  0
LINE
  8
2D_BEMASSUNG
  6
CONTINUOUS
 62
1
 10
4.7002105E+002
 20
2.4238614E+002
 11
4.7002101E+002
 21
2.2594061E+002
  0
LINE
  8
2D_BEMASSUNG
  6
CONTINUOUS
 62
1
 10
4.4852093E+002
 20
2.2744066E+002
 11
4.5964535E+002
 21
2.2744063E+002
  0
LINE
  8
2D_BEMASSUNG
  6
CONTINUOUS
 62
1
 10
4.7002101E+002
 20
2.2744061E+002
 11
4.5964535E+002
 21
2.2744063E+002
  0
INSERT
  2
_AH13
  8
2D_BEMASSUNG
 62
1
 10
4.4852093E+002
 20
2.2744066E+002
 41
4.0
 42
4.0
 43
4.0
 50
5.3999988E+002
  0
INSERT
  2
_AH13
  8
2D_BEMASSUNG
 62
1
 10
4.7002101E+002
 20
2.2744061E+002
 41
4.0
 42
4.0
 43
4.0
 50
7.1999988E+002
  0
TEXT
  8
2D_BEMASSUNG
  6
CONTINUOUS
 62
1
 10
4.5684535E+002
 20
2.2894164E+002
 40
3.5
  1
43
 41
8.0E-001
 50
3.5999988E+002
  0
ENDBLK
  0
BLOCK
  2
*D657
  3
*D
 10
0.0
 20
0.0
 70
65
  0
LINE
  8
2D_BEMASSUNG
  6
CONTINUOUS
 62
1
 10
4.9877102E+002
 20
2.4326254E+002
 11
4.9877102E+002
 21
2.2544468E+002
  0
LINE
  8
2D_BEMASSUNG
  6
CONTINUOUS
 62
1
 10
5.2352105E+002
 20
2.0265441E+002
 11
5.2352105E+002
 21
2.2844468E+002
  0
LINE
  8
2D_BEMASSUNG
  6
CONTINUOUS
 62
1
 10
4.9877102E+002
 20
2.2694468E+002
 11
5.0751673E+002
 21
2.2694468E+002
  0
LINE
  8
2D_BEMASSUNG
  6
CONTINUOUS
 62
1
 10
5.2352105E+002
 20
2.2694468E+002
 11
5.0751673E+002
 21
2.2694468E+002
  0
INSERT
  2
_AH13
  8
2D_BEMASSUNG
 62
1
 10
4.9877102E+002
 20
2.2694468E+002
 41
4.0
 42
4.0
 43
4.0
 50
1.8E+002
  0
INSERT
  2
_AH13
  8
2D_BEMASSUNG
 62
1
 10
5.2352105E+002
 20
2.2694468E+002
 41
4.0
 42
4.0
 43
4.0
 50
3.6E+002
  0
TEXT
  8
2D_BEMASSUNG
  6
CONTINUOUS
 62
1
 10
5.0471673E+002
 20
2.2844568E+002
 40
3.5
  1
49
 41
8.0E-001
  0
ENDBLK
  0
BLOCK
  2
*D658
  3
*D
 10
0.0
 20
0.0
 70
65
  0
LINE
  8
2D_BEMASSUNG
  6
CONTINUOUS
 62
1
 10
4.9602105E+002
 20
2.7326256E+002
 11
5.7202665E+002
 21
2.7326256E+002
  0
LINE
  8
2D_BEMASSUNG
  6
CONTINUOUS
 62
1
 10
5.1344559E+002
 20
2.8163754E+002
 11
5.7202665E+002
 21
2.8163754E+002
  0
LINE
  8
2D_BEMASSUNG
  6
CONTINUOUS
 62
1
 10
5.7052665E+002
 20
2.7326256E+002
 11
5.7052665E+002
 21
2.6081123E+002
  0
LINE
  8
2D_BEMASSUNG
  6
CONTINUOUS
 62
1
 10
5.7052665E+002
 20
2.8963754E+002
 11
5.7052665E+002
 21
2.7326256E+002
  0
INSERT
  2
_AH13
  8
2D_BEMASSUNG
 62
1
 10
5.7052665E+002
 20
2.7326256E+002
 41
4.0
 42
4.0
 43
4.0
 50
4.5E+002
  0
INSERT
  2
_AH13
  8
2D_BEMASSUNG
 62
1
 10
5.7052665E+002
 20
2.8163754E+002
 41
4.0
 42
4.0
 43
4.0
 50
6.3E+002
  0
TEXT
  8
2D_BEMASSUNG
  6
CONTINUOUS
 62
1
 10
5.6902565E+002
 20
2.6231123E+002
 40
3.5
  1
17
 41
8.0E-001
 50
9.0E+001
  0
ENDBLK
  0
BLOCK
  2
*D749
  3
*D
 10
0.0
 20
0.0
 70
65
  0
LINE
  8
2D_BEMASSUNG
  6
CONTINUOUS
 62
1
 10
5.1102106E+002
 20
2.9163756E+002
 11
5.1102106E+002
 21
3.3673194E+002
  0
LINE
  8
2D_BEMASSUNG
  6
CONTINUOUS
 62
1
 10
4.4852104E+002
 20
2.8813756E+002
 11
4.4852104E+002
 21
3.3673194E+002
  0
LINE
  8
2D_BEMASSUNG
  6
CONTINUOUS
 62
1
 10
5.1102106E+002
 20
3.3523194E+002
 11
4.8212823E+002
 21
3.3523194E+002
  0
LINE
  8
2D_BEMASSUNG
  6
CONTINUOUS
 62
1
 10
4.4852104E+002
 20
3.3523194E+002
 11
4.8212823E+002
 21
3.3523194E+002
  0
INSERT
  2
_AH13
  8
2D_BEMASSUNG
 62
1
 10
5.1102106E+002
 20
3.3523194E+002
 41
4.0
 42
4.0
 43
4.0
 50
3.6E+002
  0
INSERT
  2
_AH13
  8
2D_BEMASSUNG
 62
1
 10
4.4852104E+002
 20
3.3523194E+002
 41
4.0
 42
4.0
 43
4.0
 50
5.4E+002
  0
TEXT
  8
2D_BEMASSUNG
  6
CONTINUOUS
 62
1
 10
4.7792823E+002
 20
3.3673294E+002
 40
3.5
  1
125
 41
8.0E-001
 50
3.6E+002
  0
ENDBLK
  0
BLOCK
  2
*D750
  3
*D
 10
0.0
 20
0.0
 70
65
  0
LINE
  8
2D_BEMASSUNG
  6
CONTINUOUS
 62
1
 10
5.2352106E+002
 20
2.9663754E+002
 11
5.7202665E+002
 21
2.9663754E+002
  0
LINE
  8
2D_BEMASSUNG
  6
CONTINUOUS
 62
1
 10
5.2352103E+002
 20
2.8163754E+002
 11
5.7202665E+002
 21
2.8163754E+002
  0
LINE
  8
2D_BEMASSUNG
  6
CONTINUOUS
 62
1
 10
5.7052665E+002
 20
2.9663754E+002
 11
5.7052665E+002
 21
2.8956847E+002
  0
LINE
  8
2D_BEMASSUNG
  6
CONTINUOUS
 62
1
 10
5.7052665E+002
 20
2.8163754E+002
 11
5.7052665E+002
 21
2.8956847E+002
  0
INSERT
  2
_AH13
  8
2D_BEMASSUNG
 62
1
 10
5.7052665E+002
 20
2.9663754E+002
 41
4.0
 42
4.0
 43
4.0
 50
4.5E+002
  0
INSERT
  2
_AH13
  8
2D_BEMASSUNG
 62
1
 10
5.7052665E+002
 20
2.8163754E+002
 41
4.0
 42
4.0
 43
4.0
 50
6.3E+002
  0
TEXT
  8
2D_BEMASSUNG
  6
CONTINUOUS
 62
1
 10
5.6902565E+002
 20
2.8676847E+002
 40
3.5
  1
30
 41
8.0E-001
 50
9.0E+001
  0
ENDBLK
  0
BLOCK
  2
*D751
  3
*D
 10
0.0
 20
0.0
 70
65
  0
LINE
  8
2D_BEMASSUNG
  6
CONTINUOUS
 62
1
 10
4.5002104E+002
 20
2.8663756E+002
 11
4.9820202E+002
 21
2.8663756E+002
  0
LINE
  8
2D_BEMASSUNG
  6
CONTINUOUS
 62
1
 10
5.0764787E+002
 20
2.8913756E+002
 11
4.9520202E+002
 21
2.8913756E+002
  0
LINE
  8
2D_BEMASSUNG
  6
CONTINUOUS
 62
1
 10
4.9670202E+002
 20
2.7863756E+002
 11
4.9670202E+002
 21
2.8913756E+002
  0
LINE
  8
2D_BEMASSUNG
  6
CONTINUOUS
 62
1
 10
4.9670202E+002
 20
2.8913756E+002
 11
4.9670202E+002
 21
2.9609176E+002
  0
INSERT
  2
_AH13
  8
2D_BEMASSUNG
 62
1
 10
4.9670202E+002
 20
2.8663756E+002
 41
4.0
 42
4.0
 43
4.0
 50
4.5E+002
  0
INSERT
  2
_AH13
  8
2D_BEMASSUNG
 62
1
 10
4.9670202E+002
 20
2.8913756E+002
 41
4.0
 42
4.0
 43
4.0
 50
6.3E+002
  0
TEXT
  8
2D_BEMASSUNG
  6
CONTINUOUS
 62
1
 10
4.9520102E+002
 20
2.9179176E+002
 40
3.5
  1
5
 41
8.0E-001
 50
9.0E+001
  0
ENDBLK
  0
BLOCK
  2
*D752
  3
*D
 10
0.0
 20
0.0
 70
65
  0
LINE
  8
2D_BEMASSUNG
  6
CONTINUOUS
 62
1
 10
2.2251423E+002
 20
2.9113756E+002
 11
2.2251423E+002
 21
3.3645056E+002
  0
LINE
  8
2D_BEMASSUNG
  6
CONTINUOUS
 62
1
 10
2.345171E+002
 20
2.8813756E+002
 11
2.345171E+002
 21
3.3645056E+002
  0
LINE
  8
2D_BEMASSUNG
  6
CONTINUOUS
 62
1
 10
2.2251423E+002
 20
3.3495056E+002
 11
2.0909274E+002
 21
3.3495056E+002
  0
LINE
  8
2D_BEMASSUNG
  6
CONTINUOUS
 62
1
 10
2.425171E+002
 20
3.3495056E+002
 11
2.2251423E+002
 21
3.3495056E+002
  0
INSERT
  2
_AH13
  8
2D_BEMASSUNG
 62
1
 10
2.2251423E+002
 20
3.3495056E+002
 41
4.0
 42
4.0
 43
4.0
 50
3.6E+002
  0
INSERT
  2
_AH13
  8
2D_BEMASSUNG
 62
1
 10
2.345171E+002
 20
3.3495056E+002
 41
4.0
 42
4.0
 43
4.0
 50
5.4E+002
  0
TEXT
  8
2D_BEMASSUNG
  6
CONTINUOUS
 62
1
 10
2.1059274E+002
 20
3.3645156E+002
 40
3.5
  1
24
 41
8.0E-001
  0
ENDBLK
  0
BLOCK
  2
*D753
  3
*D
 10
0.0
 20
0.0
 70
65
  0
LINE
  8
2D_BEMASSUNG
  6
CONTINUOUS
 62
1
 10
2.3301854E+002
 20
2.8663756E+002
 11
2.1161403E+002
 21
2.8663756E+002
  0
LINE
  8
2D_BEMASSUNG
  6
CONTINUOUS
 62
1
 10
2.1967209E+002
 20
2.8913756E+002
 11
2.1161403E+002
 21
2.8913756E+002
  0
LINE
  8
2D_BEMASSUNG
  6
CONTINUOUS
 62
1
 10
2.1311403E+002
 20
2.7863756E+002
 11
2.1311403E+002
 21
2.8913756E+002
  0
LINE
  8
2D_BEMASSUNG
  6
CONTINUOUS
 62
1
 10
2.1311403E+002
 20
2.8913756E+002
 11
2.1311403E+002
 21
2.9691322E+002
  0
INSERT
  2
_AH13
  8
2D_BEMASSUNG
 62
1
 10
2.1311403E+002
 20
2.8663756E+002
 41
4.0
 42
4.0
 43
4.0
 50
4.5E+002
  0
INSERT
  2
_AH13
  8
2D_BEMASSUNG
 62
1
 10
2.1311403E+002
 20
2.8913756E+002
 41
4.0
 42
4.0
 43
4.0
 50
6.3E+002
  0
TEXT
  8
2D_BEMASSUNG
  6
CONTINUOUS
 62
1
 10
2.1161303E+002
 20
2.9261322E+002
 40
3.5
  1
5
 41
8.0E-001
 50
9.0E+001
  0
ENDBLK
  0
ENDSEC
  0
SECTION
  2
ENTITIES
  0
LINE
  8
2D_SICHTBARE_KANTEN
  6
CONTINUOUS
 62
40
 10
5.916306
 20
4.141414
 11
5.8991631E+002
 21
4.141414
  0
LINE
  8
2D_SICHTBARE_KANTEN
  6
CONTINUOUS
 62
40
 10
5.8991631E+002
 20
4.141414
 11
5.8991631E+002
 21
4.1414141E+002
  0
LINE
  8
2D_SICHTBARE_KANTEN
  6
CONTINUOUS
 62
40
 10
5.8991631E+002
 20
4.1414141E+002
 11
5.916306
 21
4.1414141E+002
  0
LINE
  8
2D_SICHTBARE_KANTEN
  6
CONTINUOUS
 62
40
 10
5.916306
 20
4.1414141E+002
 11
5.916306
 21
4.141414
  0
TEXT
  8
2D_TEXT
  6
CONTINUOUS
 62
40
 10
5.6782303E+002
 20
4.5152379E+001
 40
5.0
  1
p430513.she
 41
6.5454545E-001
 72
1
 11
5.4982303E+002
 21
4.2652379E+001
 73
2
  0
TEXT
  8
2D_TEXT
  6
CONTINUOUS
 62
150
 10
5.3025452E+002
 20
3.426559E+001
 40
3.5
  1
Maßstab:
 41
6.4687502E-001
 72
1
 11
5.2119827E+002
 21
3.251559E+001
 73
2
  0
LINE
  8
1
  6
CONTINUOUS
 62
3
 10
4.6028861E+002
 20
4.7806638E+001
 11
4.6028861E+002
 21
6.5613238E+001
  0
LINE
  8
1
  6
CONTINUOUS
 62
3
 10
4.6028861E+002
 20
6.5613238E+001
 11
5.7364561E+002
 21
6.5613238E+001
  0
LINE
  8
1
  6
CONTINUOUS
 62
3
 10
5.7364561E+002
 20
6.5613238E+001
 11
5.7364561E+002
 21
4.7806638E+001
  0
TEXT
  8
2D_TEXT
  6
CONTINUOUS
 62
40
 10
4.7751599E+002
 20
5.5632931E+001
 40
5.0
  1
Montage Bandgegenseite EMR
 41
6.6176471E-001
  0
TEXT
  8
2D_TEXT
  6
CONTINUOUS
 62
150
 10
5.2731729E+002
 20
4.386474E+001
 40
3.5
  1
Zng.Nr.
 41
6.4285716E-001
 72
1
 11
5.1944229E+002
 21
4.211474E+001
 73
2
  0
TEXT
  8
2D_TEXT
  6
CONTINUOUS
 62
40
 10
5.0621808E+002
 20
4.5241368E+001
 40
5.0
  1
M.Schell
 41
6.46875E-001
 72
1
 11
4.9328058E+002
 21
4.2741368E+001
 73
2
  0
TEXT
  8
2D_TEXT
  6
CONTINUOUS
 62
150
 10
4.7176344E+002
 20
4.4021398E+001
 40
3.5
  1
gez.
 41
6.1875002E-001
 72
1
 11
4.6743219E+002
 21
4.2271398E+001
 73
2
  0
TEXT
  8
2D_TEXT
  6
CONTINUOUS
 62
150
 10
4.7325801E+002
 20
3.4621986E+001
 40
3.5
  1
Datum
 41
6.3000002E-001
 72
1
 11
4.6774551E+002
 21
3.2871986E+001
 73
2
  0
TEXT
  8
2D_TEXT
  6
CONTINUOUS
 62
40
 10
5.4165048E+002
 20
3.5322375E+001
 40
5.0
  1
1:2
 41
6.0E-001
 72
1
 11
5.3715048E+002
 21
3.2822375E+001
 73
2
  0
LINE
  8
1
  6
CONTINUOUS
 62
3
 10
5.4994561E+002
 20
3.7806638E+001
 11
5.4994561E+002
 21
2.7806638E+001
  0
TEXT
  8
2D_TEXT
  6
CONTINUOUS
 62
40
 10
5.6436337E+002
 20
3.5527988E+001
 40
5.0
  1
A2
 41
6.0E-001
 72
1
 11
5.6136337E+002
 21
3.3027988E+001
 73
2
  0
LINE
  8
1
  6
CONTINUOUS
 62
3
 10
4.6028861E+002
 20
4.7806638E+001
 11
5.7364561E+002
 21
4.7806638E+001
  0
LINE
  8
1
  6
CONTINUOUS
 62
3
 10
5.7364561E+002
 20
4.7806638E+001
 11
5.7364561E+002
 21
2.7806638E+001
  0
LINE
  8
1
  6
CONTINUOUS
 62
3
 10
5.7364561E+002
 20
2.7806638E+001
 11
4.6028861E+002
 21
2.7806638E+001
  0
LINE
  8
1
  6
CONTINUOUS
 62
3
 10
4.6028861E+002
 20
2.7806638E+001
 11
4.6028861E+002
 21
4.7806638E+001
  0
LINE
  8
1
  6
CONTINUOUS
 62
3
 10
5.1009861E+002
 20
4.7806638E+001
 11
5.1009861E+002
 21
2.7806638E+001
  0
LINE
  8
1
  6
CONTINUOUS
 62
3
 10
4.6028861E+002
 20
3.7806638E+001
 11
5.7364561E+002
 21
3.7806638E+001
  0
TEXT
  8
2D_TEXT
  6
CONTINUOUS
 62
150
 10
5.3025452E+002
 20
3.426559E+001
 40
3.5
  1
Maßstab:
 41
6.4687502E-001
 72
1
 11
5.2119827E+002
 21
3.251559E+001
 73
2
  0
LINE
  8
1
  6
CONTINUOUS
 62
3
 10
4.6028861E+002
 20
4.7806638E+001
 11
4.6028861E+002
 21
6.5613238E+001
  0
LINE
  8
1
  6
CONTINUOUS
 62
3
 10
4.6028861E+002
 20
6.5613238E+001
 11
5.7364561E+002
 21
6.5613238E+001
  0
LINE
  8
1
  6
CONTINUOUS
 62
3
 10
5.7364561E+002
 20
6.5613238E+001
 11
5.7364561E+002
 21
4.7806638E+001
  0
TEXT
  8
2D_TEXT
  6
CONTINUOUS
 62
150
 10
4.8330934E+002
 20
5.3420812E+001
 40
3.5
  1
Benennung
 41
6.5000002E-001
 72
1
 11
4.7307184E+002
 21
5.1670812E+001
 73
2
  0
TEXT
  8
2D_TEXT
  6
CONTINUOUS
 62
150
 10
5.2731729E+002
 20
4.386474E+001
 40
3.5
  1
Zng.Nr.
 41
6.4285716E-001
 72
1
 11
5.1944229E+002
 21
4.211474E+001
 73
2
  0
TEXT
  8
2D_TEXT
  6
CONTINUOUS
 62
150
 10
4.7176344E+002
 20
4.4021398E+001
 40
3.5
  1
gez.
 41
6.1875002E-001
 72
1
 11
4.6743219E+002
 21
4.2271398E+001
 73
2
  0
TEXT
  8
2D_TEXT
  6
CONTINUOUS
 62
150
 10
4.7325801E+002
 20
3.4621986E+001
 40
3.5
  1
Datum
 41
6.3000002E-001
 72
1
 11
4.6774551E+002
 21
3.2871986E+001
 73
2
  0
LINE
  8
1
  6
CONTINUOUS
 62
3
 10
5.4994561E+002
 20
3.7806638E+001
 11
5.4994561E+002
 21
2.7806638E+001
  0
LINE
  8
1
  6
CONTINUOUS
 62
3
 10
4.6028861E+002
 20
4.7806638E+001
 11
5.7364561E+002
 21
4.7806638E+001
  0
LINE
  8
1
  6
CONTINUOUS
 62
3
 10
5.7364561E+002
 20
4.7806638E+001
 11
5.7364561E+002
 21
2.7806638E+001
  0
LINE
  8
1
  6
CONTINUOUS
 62
3
 10
5.7364561E+002
 20
2.7806638E+001
 11
4.6028861E+002
 21
2.7806638E+001
  0
LINE
  8
1
  6
CONTINUOUS
 62
3
 10
4.6028861E+002
 20
2.7806638E+001
 11
4.6028861E+002
 21
4.7806638E+001
  0
LINE
  8
1
  6
CONTINUOUS
 62
3
 10
5.1009861E+002
 20
4.7806638E+001
 11
5.1009861E+002
 21
2.7806638E+001
  0
LINE
  8
1
  6
CONTINUOUS
 62
3
 10
4.6028861E+002
 20
3.7806638E+001
 11
5.7364561E+002
 21
3.7806638E+001
  0
INSERT
  2
*TX69
  8
2D_TEXT
 10
4.928858E+002
 20
4.0099515E+001
 41
5.0E-001
 43
5.0E-001
 42
5.0E-001
  0
INSERT
  2
UU
  8
2D_SYMBOLE
 10
9.1113925
 20
8.156009
 50
2.7E+002
  0
TEXT
  8
2D_TEXT
  6
CONTINUOUS
 62
1
 10
1.8224061E+002
 20
3.092903E+002
 40
3.5
  1
%%c8 (24V DC)
 41
8.0E-001
  0
INSERT
  2
9NEW00
  8
2D_SYMBOLE
 10
3.5894819E+002
 20
2.7326256E+002
 41
5.0E-001
 43
5.0E-001
 42
-5.0E-001
 50
1.8E+002
  0
TEXT
  8
2D_TEXT
  6
CONTINUOUS
 62
1
 10
4.6098878E+002
 20
3.086943E+002
 40
3.5
  1
%%c10 (230V AC)
 41
8.0E-001
  0
LINE
  8
2D_SICHTBARE_KANTEN
  6
CONTINUOUS
 62
40
 10
5.1977105E+002
 20
1.5414958E+002
 11
5.1977105E+002
 21
1.6091658E+002
  0
LINE
  8
2D_SICHTBARE_KANTEN
  6
CONTINUOUS
 62
40
 10
5.1977105E+002
 20
1.6091658E+002
 11
5.1977105E+002
 21
2.8163754E+002
  0
LINE
  8
2D_SICHTBARE_KANTEN
  6
CONTINUOUS
 62
40
 10
5.1344559E+002
 20
2.8163754E+002
 11
2.3094563E+002
 21
2.8163754E+002
  0
LINE
  8
2D_SICHTBARE_KANTEN
  6
CONTINUOUS
 62
40
 10
2.3094563E+002
 20
2.8163754E+002
 11
2.7816466E+001
 21
2.8163754E+002
  0
LINE
  8
2D_SICHTBARE_KANTEN
  6
CONTINUOUS
 62
40
 10
5.1777105E+002
 20
1.5414958E+002
 11
5.1777105E+002
 21
1.6064558E+002
  0
LINE
  8
2D_SICHTBARE_KANTEN
  6
CONTINUOUS
 62
40
 10
5.1777105E+002
 20
1.5739758E+002
 11
5.1777105E+002
 21
2.7963754E+002
  0
LINE
  8
2D_SICHTBARE_KANTEN
  6
CONTINUOUS
 62
40
 10
5.1777105E+002
 20
2.7963754E+002
 11
4.5902102E+002
 21
2.7963754E+002
  0
LINE
  8
2D_SICHTBARE_KANTEN
  6
CONTINUOUS
 62
40
 10
2.4302108E+002
 20
2.7963754E+002
 11
2.7816466E+001
 21
2.7963754E+002
  0
LINE
  8
2D_MITTELLINIEN
  6
CENTERLINE
 62
1
 10
2.7816466E+001
 20
3.3339954E+002
 11
2.7816466E+001
 21
1.4641558E+002
  0
LINE
  8
2D_SICHTBARE_KANTEN
  6
CONTINUOUS
 62
40
 10
5.2352104E+002
 20
2.8538753E+002
 11
5.6227105E+002
 21
3.2413754E+002
  0
LINE
  8
2D_SICHTBARE_KANTEN
  6
CONTINUOUS
 62
40
 10
5.6227105E+002
 20
1.5414958E+002
 11
5.6227105E+002
 21
3.2413754E+002
  0
LINE
  8
2D_SICHTBARE_KANTEN
  6
CONTINUOUS
 62
40
 10
5.6227105E+002
 20
3.2413754E+002
 11
2.7816466E+001
 21
3.2413754E+002
  0
LINE
  8
2D_SICHTBARE_KANTEN
  6
CONTINUOUS
 62
40
 10
2.6052105E+002
 20
2.7963754E+002
 11
2.4302108E+002
 21
2.7963754E+002
  0
TEXT
  8
2D_TEXT
  6
CONTINUOUS
 62
1
 10
4.990261E+002
 20
2.3470306E+002
 40
3.5
  1
(45)
 41
8.0E-001
  0
DIMENSION
  8
2D_BEMASSUNG
  6
CONTINUOUS
 62
1
  2
*D653
  3
DSTYLE4
 10
2.3451527E+002
 20
3.3495053E+002
 11
3.4878932E+002
 21
3.3820129E+002
 70
128
 13
4.4852106E+002
 23
2.9013843E+002
 14
2.3451517E+002
 24
2.9017468E+002
 40
5.0
 50
1.7999988E+002
1001
ACAD
1000
DSTYLE
1002
{
1070
173
1070
0
1070
5
1000
_AH13
1002
}
  0
DIMENSION
  8
2D_BEMASSUNG
  6
CONTINUOUS
 62
1
  2
*D654
  3
DSTYLE5
 10
3.9002106E+002
 20
2.1279927E+002
 11
4.316176E+002
 21
2.1605027E+002
 70
128
 13
4.7002105E+002
 23
2.4238614E+002
 14
3.9002106E+002
 24
2.4238614E+002
 40
5.0
 50
0.0
1001
ACAD
1000
DSTYLE
1002
{
1070
173
1070
0
1070
5
1000
_AH13
1002
}
  0
DIMENSION
  8
2D_BEMASSUNG
  6
CONTINUOUS
 62
1
  2
*D655
  3
DSTYLE5
 10
5.2352105E+002
 20
2.1279927E+002
 11
4.9562128E+002
 21
2.1605027E+002
 70
128
 13
4.7002105E+002
 23
2.4238614E+002
 14
5.2352105E+002
 24
2.0265441E+002
 40
5.0
 50
0.0
1001
ACAD
1000
DSTYLE
1002
{
1070
173
1070
0
1070
5
1000
_AH13
1002
}
  0
DIMENSION
  8
2D_BEMASSUNG
  6
CONTINUOUS
 62
1
  2
*D656
  3
DSTYLE5
 10
4.7002101E+002
 20
2.2744061E+002
 11
4.5964536E+002
 21
2.3069163E+002
 70
128
 13
4.4852105E+002
 23
2.830551E+002
 14
4.7002105E+002
 24
2.4238614E+002
 40
5.0
 50
3.5999988E+002
1001
ACAD
1000
DSTYLE
1002
{
1070
173
1070
0
1070
5
1000
_AH13
1002
}
  0
DIMENSION
  8
2D_BEMASSUNG
  6
CONTINUOUS
 62
1
  1
49
  2
*D657
  3
DSTYLE5
 10
5.2352105E+002
 20
2.2694468E+002
 11
5.0751673E+002
 21
2.3019568E+002
 70
128
 13
4.9877102E+002
 23
2.4326254E+002
 14
5.2352105E+002
 24
2.0265441E+002
 40
5.0
 50
0.0
1001
ACAD
1000
DSTYLE
1002
{
1070
173
1070
0
1070
5
1000
_AH13
1002
}
  0
DIMENSION
  8
2D_BEMASSUNG
  6
CONTINUOUS
 62
1
  2
*D658
  3
DSTYLE4
 10
5.7052665E+002
 20
2.8163754E+002
 11
5.6727565E+002
 21
2.6511123E+002
 70
128
 13
4.9602105E+002
 23
2.7326256E+002
 14
5.1344559E+002
 24
2.8163754E+002
 40
5.0
 50
9.0E+001
1001
ACAD
1000
DSTYLE
1002
{
1070
173
1070
0
1070
5
1000
_AH13
1002
}
  0
LINE
  8
2D_SICHTBARE_KANTEN
  6
CONTINUOUS
 62
40
 10
2.7027104E+002
 20
2.8163752E+002
 11
2.7027104E+002
 21
2.8048754E+002
  0
LINE
  8
2D_SICHTBARE_KANTEN
  6
CONTINUOUS
 62
40
 10
2.7027104E+002
 20
2.8048754E+002
 11
2.6177104E+002
 21
2.8048754E+002
  0
LINE
  8
2D_SICHTBARE_KANTEN
  6
CONTINUOUS
 62
40
 10
2.6177104E+002
 20
2.8048754E+002
 11
2.6177104E+002
 21
2.8163752E+002
  0
LINE
  8
2D_SICHTBARE_KANTEN
  6
CONTINUOUS
 62
40
 10
2.6300854E+002
 20
2.8053565E+002
 11
2.6300854E+002
 21
2.8038753E+002
  0
LINE
  8
2D_SICHTBARE_KANTEN
  6
CONTINUOUS
 62
40
 10
2.6300854E+002
 20
2.8038753E+002
 11
2.6903355E+002
 21
2.8038753E+002
  0
LINE
  8
2D_SICHTBARE_KANTEN
  6
CONTINUOUS
 62
40
 10
2.6903355E+002
 20
2.8038753E+002
 11
2.6903355E+002
 21
2.8048754E+002
  0
LINE
  8
2D_SICHTBARE_KANTEN
  6
CONTINUOUS
 62
40
 10
2.6850854E+002
 20
2.8038753E+002
 11
2.6850854E+002
 21
2.7988753E+002
  0
LINE
  8
2D_SICHTBARE_KANTEN
  6
CONTINUOUS
 62
40
 10
2.6353356E+002
 20
2.8038753E+002
 11
2.6353356E+002
 21
2.7988753E+002
  0
LINE
  8
2D_SICHTBARE_KANTEN
  6
CONTINUOUS
 62
40
 10
4.5602103E+002
 20
2.7988753E+002
 11
4.5602103E+002
 21
2.8013753E+002
  0
ARC
  8
2D_SICHTBARE_KANTEN
  6
CONTINUOUS
 62
40
 10
4.5577103E+002
 20
2.8013753E+002
 40
2.5000014E-001
 50
0.0
 51
9.0E+001
  0
LINE
  8
2D_SICHTBARE_KANTEN
  6
CONTINUOUS
 62
40
 10
4.5577103E+002
 20
2.8038753E+002
 11
4.5127103E+002
 21
2.8038753E+002
  0
ARC
  8
2D_SICHTBARE_KANTEN
  6
CONTINUOUS
 62
40
 10
4.5127102E+002
 20
2.8013754E+002
 40
2.4999453E-001
 50
8.9998747E+001
 51
1.8000125E+002
  0
LINE
  8
2D_SICHTBARE_KANTEN
  6
CONTINUOUS
 62
40
 10
4.5102103E+002
 20
2.8013753E+002
 11
4.5102103E+002
 21
2.7988753E+002
  0
LINE
  8
2D_SICHTBARE_KANTEN
  6
CONTINUOUS
 62
40
 10
4.5902102E+002
 20
2.7326254E+002
 11
4.5902102E+002
 21
2.7738753E+002
  0
LINE
  8
2D_SICHTBARE_KANTEN
  6
CONTINUOUS
 62
40
 10
4.5902102E+002
 20
2.7738753E+002
 11
4.4802102E+002
 21
2.7738753E+002
  0
LINE
  8
2D_SICHTBARE_KANTEN
  6
CONTINUOUS
 62
40
 10
4.4802102E+002
 20
2.7738753E+002
 11
4.4802102E+002
 21
2.7326254E+002
  0
LINE
  8
2D_SICHTBARE_KANTEN
  6
CONTINUOUS
 62
40
 10
2.6052105E+002
 20
2.7738753E+002
 11
2.6052105E+002
 21
2.7988753E+002
  0
LINE
  8
2D_SICHTBARE_KANTEN
  6
CONTINUOUS
 62
40
 10
2.6052105E+002
 20
2.7988753E+002
 11
2.6945408E+002
 21
2.7988753E+002
  0
LINE
  8
2D_SICHTBARE_KANTEN
  6
CONTINUOUS
 62
40
 10
2.6945408E+002
 20
2.7988753E+002
 11
4.5057102E+002
 21
2.7988753E+002
  0
LINE
  8
2D_SICHTBARE_KANTEN
  6
CONTINUOUS
 62
40
 10
4.5057102E+002
 20
2.7988753E+002
 11
4.5902102E+002
 21
2.7988753E+002
  0
LINE
  8
2D_SICHTBARE_KANTEN
  6
CONTINUOUS
 62
40
 10
4.5902102E+002
 20
2.7988753E+002
 11
4.5902102E+002
 21
2.7738753E+002
  0
LINE
  8
2D_SICHTBARE_KANTEN
  6
CONTINUOUS
 62
40
 10
4.5902102E+002
 20
2.7738753E+002
 11
2.6052105E+002
 21
2.7738753E+002
  0
LINE
  8
2D_SICHTBARE_KANTEN
  6
CONTINUOUS
 62
40
 10
2.6926354E+002
 20
2.7738753E+002
 11
2.6926354E+002
 21
2.7713752E+002
  0
ARC
  8
2D_SICHTBARE_KANTEN
  6
CONTINUOUS
 62
40
 10
2.6901355E+002
 20
2.7713752E+002
 40
2.4999706E-001
 50
2.6999933E+002
 51
3.6000067E+002
  0
LINE
  8
2D_SICHTBARE_KANTEN
  6
CONTINUOUS
 62
40
 10
2.6901354E+002
 20
2.7688752E+002
 11
2.6302856E+002
 21
2.7688752E+002
  0
ARC
  8
2D_SICHTBARE_KANTEN
  6
CONTINUOUS
 62
40
 10
2.6302855E+002
 20
2.7713751E+002
 40
2.4999019E-001
 50
1.7999775E+002
 51
2.7000225E+002
  0
LINE
  8
2D_SICHTBARE_KANTEN
  6
CONTINUOUS
 62
40
 10
2.6277856E+002
 20
2.7713752E+002
 11
2.6277856E+002
 21
2.7738753E+002
  0
LINE
  8
2D_SICHTBARE_KANTEN
  6
CONTINUOUS
 62
40
 10
2.6277856E+002
 20
2.7738753E+002
 11
2.6926354E+002
 21
2.7738753E+002
  0
LINE
  8
2D_SICHTBARE_KANTEN
  6
CONTINUOUS
 62
40
 10
2.6258802E+002
 20
2.7988754E+002
 11
2.6353356E+002
 21
2.7988754E+002
  0
LINE
  8
2D_SICHTBARE_KANTEN
  6
CONTINUOUS
 62
40
 10
2.6850854E+002
 20
2.7988754E+002
 11
2.6945408E+002
 21
2.7988754E+002
  0
LINE
  8
2D_MITTELLINIEN
  6
CENTERLINE
 62
1
 10
4.5352102E+002
 20
2.8128559E+002
 11
4.5352102E+002
 21
2.6961645E+002
  0
CIRCLE
  8
2D_SICHTBARE_KANTEN
  6
CONTINUOUS
 62
1
 10
4.7002102E+002
 20
2.6763754E+002
 40
2.5
  0
CIRCLE
  8
2D_SICHTBARE_KANTEN
  6
CONTINUOUS
 62
1
 10
4.1602103E+002
 20
2.6363754E+002
 40
2.5
  0
LINE
  8
2D_MITTELLINIEN
  6
CENTERLINE
 62
1
 10
4.1602103E+002
 20
2.6722086E+002
 11
4.1602103E+002
 21
2.6000311E+002
  0
LINE
  8
2D_MITTELLINIEN
  6
CENTERLINE
 62
1
 10
4.1252477E+002
 20
2.6363754E+002
 11
4.1964228E+002
 21
2.6363754E+002
  0
LINE
  8
2D_MITTELLINIEN
  6
CENTERLINE
 62
1
 10
4.4402102E+002
 20
2.6722086E+002
 11
4.4402102E+002
 21
2.6000311E+002
  0
LINE
  8
2D_MITTELLINIEN
  6
CENTERLINE
 62
1
 10
4.4052476E+002
 20
2.6363754E+002
 11
4.4764227E+002
 21
2.6363754E+002
  0
CIRCLE
  8
2D_SICHTBARE_KANTEN
  6
CONTINUOUS
 62
1
 10
4.4402102E+002
 20
2.6363754E+002
 40
2.5
  0
CIRCLE
  8
2D_SICHTBARE_KANTEN
  6
CONTINUOUS
 62
1
 10
3.9002103E+002
 20
2.4613754E+002
 40
2.5
  0
LINE
  8
99
  6
CONTINUOUS
 62
1
 10
4.7002102E+002
 20
2.4238612E+002
 11
4.7002102E+002
 21
2.7152449E+002
  0
LINE
  8
2D_MITTELLINIEN
  6
CENTERLINE
 62
1
 10
4.7305053E+002
 20
2.6763754E+002
 11
4.6621891E+002
 21
2.6763754E+002
  0
LINE
  8
2D_MITTELLINIEN
  6
CENTERLINE
 62
1
 10
3.8699152E+002
 20
2.4613754E+002
 11
3.9382314E+002
 21
2.4613754E+002
  0
LINE
  8
2D_MITTELLINIEN
  6
CENTERLINE
 62
1
 10
3.9002104E+002
 20
2.4238612E+002
 11
3.9002104E+002
 21
2.7138241E+002
  0
LINE
  8
2D_MITTELLINIEN
  6
CENTERLINE
 62
1
 10
3.8699152E+002
 20
2.5413754E+002
 11
3.9382314E+002
 21
2.5413754E+002
  0
LINE
  8
2D_MITTELLINIEN
  6
CENTERLINE
 62
1
 10
3.8699152E+002
 20
2.5963754E+002
 11
3.9382314E+002
 21
2.5963754E+002
  0
LINE
  8
2D_MITTELLINIEN
  6
CENTERLINE
 62
1
 10
3.8699152E+002
 20
2.6763754E+002
 11
3.9382314E+002
 21
2.6763754E+002
  0
LINE
  8
2D_MITTELLINIEN
  6
CENTERLINE
 62
1
 10
4.7305053E+002
 20
2.4613754E+002
 11
4.6621891E+002
 21
2.4613754E+002
  0
LINE
  8
2D_MITTELLINIEN
  6
CENTERLINE
 62
1
 10
4.7305053E+002
 20
2.5413754E+002
 11
4.6621891E+002
 21
2.5413754E+002
  0
LINE
  8
2D_MITTELLINIEN
  6
CENTERLINE
 62
1
 10
4.7305053E+002
 20
2.5963754E+002
 11
4.6621891E+002
 21
2.5963754E+002
  0
CIRCLE
  8
2D_SICHTBARE_KANTEN
  6
CONTINUOUS
 62
1
 10
3.9002103E+002
 20
2.5413754E+002
 40
2.5
  0
CIRCLE
  8
2D_SICHTBARE_KANTEN
  6
CONTINUOUS
 62
1
 10
3.9002103E+002
 20
2.5963754E+002
 40
2.5
  0
CIRCLE
  8
2D_SICHTBARE_KANTEN
  6
CONTINUOUS
 62
1
 10
3.9002103E+002
 20
2.6763754E+002
 40
2.5
  0
CIRCLE
  8
2D_SICHTBARE_KANTEN
  6
CONTINUOUS
 62
1
 10
4.7002102E+002
 20
2.4613754E+002
 40
2.5
  0
CIRCLE
  8
2D_SICHTBARE_KANTEN
  6
CONTINUOUS
 62
1
 10
4.7002102E+002
 20
2.5413754E+002
 40
2.5
  0
CIRCLE
  8
2D_SICHTBARE_KANTEN
  6
CONTINUOUS
 62
1
 10
4.7002102E+002
 20
2.5963754E+002
 40
2.5
  0
LINE
  8
2D_SICHTBARE_KANTEN
  6
CONTINUOUS
 62
40
 10
4.9352102E+002
 20
2.4326254E+002
 11
4.9377102E+002
 21
2.4326254E+002
  0
LINE
  8
2D_SICHTBARE_KANTEN
  6
CONTINUOUS
 62
40
 10
4.9377102E+002
 20
2.4326254E+002
 11
4.9877102E+002
 21
2.4326254E+002
  0
LINE
  8
2D_SICHTBARE_KANTEN
  6
CONTINUOUS
 62
40
 10
4.9877102E+002
 20
2.4326254E+002
 11
4.9877102E+002
 21
2.7326254E+002
  0
LINE
  8
2D_SICHTBARE_KANTEN
  6
CONTINUOUS
 62
40
 10
4.9877102E+002
 20
2.7326254E+002
 11
4.9377102E+002
 21
2.7326254E+002
  0
LINE
  8
2D_SICHTBARE_KANTEN
  6
CONTINUOUS
 62
40
 10
4.9377102E+002
 20
2.7326254E+002
 11
4.9352102E+002
 21
2.7326254E+002
  0
LINE
  8
2D_SICHTBARE_KANTEN
  6
CONTINUOUS
 62
40
 10
4.9352102E+002
 20
2.7326254E+002
 11
3.6652104E+002
 21
2.7326254E+002
  0
LINE
  8
2D_SICHTBARE_KANTEN
  6
CONTINUOUS
 62
40
 10
3.6652104E+002
 20
2.7326254E+002
 11
3.6627104E+002
 21
2.7326254E+002
  0
LINE
  8
2D_SICHTBARE_KANTEN
  6
CONTINUOUS
 62
40
 10
3.6627104E+002
 20
2.7326254E+002
 11
3.6127104E+002
 21
2.7326254E+002
  0
LINE
  8
2D_SICHTBARE_KANTEN
  6
CONTINUOUS
 62
40
 10
3.6127104E+002
 20
2.7326254E+002
 11
3.6127104E+002
 21
2.4326254E+002
  0
LINE
  8
2D_SICHTBARE_KANTEN
  6
CONTINUOUS
 62
40
 10
3.6627104E+002
 20
2.4326254E+002
 11
3.6652104E+002
 21
2.4326254E+002
  0
LINE
  8
2D_SICHTBARE_KANTEN
  6
CONTINUOUS
 62
40
 10
3.6127104E+002
 20
2.4326254E+002
 11
4.9352102E+002
 21
2.4326254E+002
  0
LINE
  8
2D_SICHTBARE_KANTEN
  6
CONTINUOUS
 62
40
 10
3.6627104E+002
 20
2.4351254E+002
 11
3.6627104E+002
 21
2.4326254E+002
  0
LINE
  8
2D_MITTELLINIEN
  6
CENTERLINE
 62
1
 10
4.7002102E+002
 20
2.4238612E+002
 11
4.7002102E+002
 21
2.5789882E+002
  0
LINE
  8
2D_MITTELLINIEN
  6
CENTERLINE
 62
1
 10
4.7002102E+002
 20
2.5789882E+002
 11
4.7002102E+002
 21
2.697442E+002
  0
LINE
  8
2D_MITTELLINIEN
  6
CENTERLINE
 62
1
 10
3.9002103E+002
 20
2.4238612E+002
 11
3.9002103E+002
 21
2.5837858E+002
  0
LINE
  8
2D_MITTELLINIEN
  6
CENTERLINE
 62
1
 10
3.9002103E+002
 20
2.5837858E+002
 11
3.9002103E+002
 21
2.7001504E+002
  0
LINE
  8
2D_SICHTBARE_KANTEN
  6
CONTINUOUS
 62
40
 10
4.5514602E+002
 20
2.7738754E+002
 11
4.5189602E+002
 21
2.7738754E+002
  0
LINE
  8
2D_MITTELLINIEN
  6
CENTERLINE
 62
1
 10
2.6602105E+002
 20
2.7636623E+002
 11
2.6602105E+002
 21
2.8323766E+002
  0
LINE
  8
2D_SICHTBARE_KANTEN
  6
CONTINUOUS
 62
40
 10
4.5647102E+002
 20
2.7738754E+002
 11
4.5057102E+002
 21
2.7738754E+002
  0
LINE
  8
2D_SICHTBARE_KANTEN
  6
CONTINUOUS
 62
40
 10
2.6302105E+002
 20
2.7738753E+002
 11
2.6353356E+002
 21
2.7738753E+002
  0
LINE
  8
2D_SICHTBARE_KANTEN
  6
CONTINUOUS
 62
40
 10
2.6850854E+002
 20
2.7738753E+002
 11
2.6902105E+002
 21
2.7738753E+002
  0
ARC
  8
2D_VERDECKTE_KANTEN
  6
HIDDEN
 62
1
 10
5.2352105E+002
 20
1.6814558E+002
 40
7.500701
 50
2.4000309E+002
 51
2.9999691E+002
  0
ARC
  8
2D_VERDECKTE_KANTEN
  6
HIDDEN
 62
1
 10
5.2352105E+002
 20
1.9515458E+002
 40
7.499835
 50
5.9999272E+001
 51
1.2000073E+002
  0
LINE
  8
2D_VERDECKTE_KANTEN
  6
HIDDEN
 62
1
 10
5.1977105E+002
 20
1.6164958E+002
 11
5.2727105E+002
 21
1.6164958E+002
  0
LINE
  8
2D_VERDECKTE_KANTEN
  6
HIDDEN
 62
1
 10
5.2727105E+002
 20
1.6164958E+002
 11
5.2727105E+002
 21
1.8164958E+002
  0
LINE
  8
2D_VERDECKTE_KANTEN
  6
HIDDEN
 62
1
 10
5.2727105E+002
 20
1.8164958E+002
 11
5.1977105E+002
 21
1.8164958E+002
  0
LINE
  8
2D_VERDECKTE_KANTEN
  6
HIDDEN
 62
1
 10
5.1977105E+002
 20
1.8164958E+002
 11
5.1977105E+002
 21
1.6164958E+002
  0
LINE
  8
2D_VERDECKTE_KANTEN
  6
HIDDEN
 62
1
 10
5.1977105E+002
 20
1.8164958E+002
 11
5.2727105E+002
 21
1.8164958E+002
  0
LINE
  8
2D_VERDECKTE_KANTEN
  6
HIDDEN
 62
1
 10
5.2727105E+002
 20
1.8164958E+002
 11
5.2727105E+002
 21
2.0164958E+002
  0
LINE
  8
2D_VERDECKTE_KANTEN
  6
HIDDEN
 62
1
 10
5.2727105E+002
 20
2.0164958E+002
 11
5.1977105E+002
 21
2.0164958E+002
  0
LINE
  8
2D_VERDECKTE_KANTEN
  6
HIDDEN
 62
1
 10
5.1977105E+002
 20
2.0164958E+002
 11
5.1977105E+002
 21
1.8164958E+002
  0
LINE
  8
2D_MITTELLINIEN
  6
CENTERLINE
 62
1
 10
5.2352105E+002
 20
1.5708258E+002
 11
5.2352105E+002
 21
2.0523258E+002
  0
LINE
  8
2D_MITTELLINIEN
  6
CENTERLINE
 62
1
 10
2.2788466E+001
 20
1.5414958E+002
 11
5.7313509E+002
 21
1.5414958E+002
  0
DIMENSION
  8
2D_BEMASSUNG
  6
CONTINUOUS
 62
1
  2
*D749
  3
DSTYLE5
 10
4.4852104E+002
 20
3.3523194E+002
 11
4.8212823E+002
 21
3.3848294E+002
 70
128
 13
5.1102106E+002
 23
2.9163756E+002
 14
4.4852104E+002
 24
2.8813756E+002
 40
5.0
 50
0.0
1001
ACAD
1000
DSTYLE
1002
{
1070
173
1070
0
1070
5
1000
_AH13
1002
}
  0
DIMENSION
  8
2D_BEMASSUNG
  6
CONTINUOUS
 62
1
  2
*D750
  3
DSTYLE5
 10
5.7052665E+002
 20
2.8163754E+002
 11
5.6727565E+002
 21
2.8956847E+002
 70
128
 13
5.2352106E+002
 23
2.9663754E+002
 14
5.2352103E+002
 24
2.8163754E+002
 40
5.0
 50
9.0E+001
1001
ACAD
1000
DSTYLE
1002
{
1070
173
1070
0
1070
5
1000
_AH13
1002
}
  0
DIMENSION
  8
2D_BEMASSUNG
  6
CONTINUOUS
 62
1
  2
*D751
  3
DSTYLE5
 10
4.9670202E+002
 20
2.8913756E+002
 11
4.9345102E+002
 21
2.9319176E+002
 70
128
 13
4.5002104E+002
 23
2.8663756E+002
 14
5.0764787E+002
 24
2.8913756E+002
 40
5.0
 50
9.0E+001
1001
ACAD
1000
DSTYLE
1002
{
1070
173
1070
0
1070
5
1000
_AH13
1002
}
  0
DIMENSION
  8
2D_BEMASSUNG
  6
CONTINUOUS
 62
1
  2
*D752
  3
DSTYLE4
 10
2.345171E+002
 20
3.3495056E+002
 11
2.1339274E+002
 21
3.3820156E+002
 70
128
 13
2.2251423E+002
 23
2.9113756E+002
 14
2.345171E+002
 24
2.8813756E+002
 40
5.0
 50
0.0
1001
ACAD
1000
DSTYLE
1002
{
1070
173
1070
0
1070
5
1000
_AH13
1002
}
  0
DIMENSION
  8
2D_BEMASSUNG
  6
CONTINUOUS
 62
1
  2
*D753
  3
DSTYLE5
 10
2.1311403E+002
 20
2.8913756E+002
 11
2.0986303E+002
 21
2.9401322E+002
 70
128
 13
2.3301854E+002
 23
2.8663756E+002
 14
2.1967209E+002
 24
2.8913756E+002
 40
5.0
 50
9.0E+001
1001
ACAD
1000
DSTYLE
1002
{
1070
173
1070
0
1070
5
1000
_AH13
1002
}
  0
LINE
  8
2D_SICHTBARE_KANTEN
  6
CONTINUOUS
 62
1
 10
4.5723315E+002
 20
3.0598112E+002
 11
4.9837834E+002
 21
3.0598112E+002
  0
LINE
  8
2D_SICHTBARE_KANTEN
  6
CONTINUOUS
 62
1
 10
4.9837834E+002
 20
3.0598112E+002
 11
5.1102105E+002
 21
2.8913756E+002
  0
LINE
  8
2D_SICHTBARE_KANTEN
  6
CONTINUOUS
 62
1
 10
1.8192256E+002
 20
3.0753987E+002
 11
2.1224412E+002
 21
3.0753987E+002
  0
LINE
  8
2D_SICHTBARE_KANTEN
  6
CONTINUOUS
 62
1
 10
2.1224412E+002
 20
3.0753987E+002
 11
2.2251619E+002
 21
2.8908967E+002
  0
ENDSEC
  0
EOF
